<?xml version="1.0" standalone="no"?>
<!DOCTYPE svg PUBLIC "-//W3C//DTD SVG 1.1//EN" "http://www.w3.org/Graphics/SVG/1.1/DTD/svg11.dtd">
<svg xmlns="http://www.w3.org/2000/svg">
<defs >
<font id="Alegreya" horiz-adv-x="528" ><font-face
    font-family="Alegreya"
    units-per-em="1000"
    panose-1="0 0 5 0 0 0 0 0 0 0"
    ascent="1016"
    descent="-345"
    alphabetic="0" />
<glyph unicode=" " glyph-name="space" horiz-adv-x="169" />
<glyph unicode="!" glyph-name="exclam" horiz-adv-x="274" d="M156 676L240 694L248 683L139 209L110 202L100 210L147 666L156 676ZM61 -12T49 2T36 38Q36 66 55 86T105 107Q128 107 141 93T154 57Q154 28 135 8T84 -12Q61 -12 49 2Z" />
<glyph unicode="&quot;" glyph-name="quotedbl" horiz-adv-x="296" d="M152 514T124 429L97 415L87 417Q103 525 108 635L178 649L184 641Q152 514 124 429ZM271 514T243 429L216 415L206 417Q222 525 227 635L297 649L303 641Q271 514 243 429Z" />
<glyph unicode="#" glyph-name="numbersign" horiz-adv-x="480" d="M83 409L186 408L240 568L281 573L288 567L232 407H282L332 406L387 568L428 573L435 567L379 406H482L485 397L462 361L362 362L349 323L325 252H427L430 243L408 207L310 208L256 43L216 35L209
41L265 209L199 210L164 209L109 43L68 35L62 41L118 209L12 208L10 218L29 255L133 254L152 311L170 363L66 362L64 372L83 409ZM178 253H228L280 252L300 311L317 363L253 364L216 363L202 323L178 253Z" />
<glyph unicode="$" glyph-name="dollar" horiz-adv-x="434" d="M288 264T312 248T355 209T374 154Q374 109 350 73T281 16T180 -9L149 -151L122 -154L118 -147L148 -9Q118 -8 92 -2T51 9T31 17L28 26Q31 37 40 76T56 161L97 165Q92 127 92 107Q92 69 106 53T157
35L196 219Q138 251 109 278T79 348Q79 389 102 424T165 481T257 506L289 654L317 658L321 649L290 507Q319 506 344 502T385 493T405 487L407 482Q403 471 393 433T373 349L337 346L332 350Q333 355 336 372T340 403Q340 430 326 443T280 458L243 288Q288 264
312 248ZM214 305L247 459Q206 456 179 435T152 382Q152 360 167 343T212 306L214 305ZM236 36T265 60T295 121Q295 145 277 164T225 203L189 34Q236 36 265 60Z" />
<glyph unicode="%" glyph-name="percent" horiz-adv-x="647" d="M558 602T469 468T325 245Q254 131 193 35T110 -95L72 -76L67 -64Q89 -31 152 66T287 275L543 678L582 659L587 645Q558 602 469 468ZM129 326T96 363T63 459Q63 512 83 555T140 624T224 649Q280
649 311 611T343 520Q343 470 324 426T269 354T183 326Q129 326 96 363ZM235 390T264 412T294 491Q294 531 271 557T206 583Q163 583 137 555T111 481Q111 436 136 413T197 390Q235 390 264 412ZM416 -12T383 25T350 121Q350 174 370 217T427 286T511 311Q567 311
598 273T630 182Q630 132 611 88T556 16T470 -12Q416 -12 383 25ZM521 52T550 74T580 153Q580 194 557 219T493 245Q450 245 424 217T398 143Q398 98 423 75T484 52Q521 52 550 74Z" />
<glyph unicode="&amp;" glyph-name="ampersand" horiz-adv-x="567" d="M174 425T211 391T308 357L569 374Q619 375 656 411L674 401L651 355Q639 331 624 323T580 314H482L477 306Q488 290 495 269T502 226Q502 163 466 108T368 21T235 -12Q182 -12 139 7T72 61T47
137Q47 198 90 247T209 319Q159 338 131 375T103 462Q103 513 133 556T214 624T326 649Q358 649 400 643T479 625L481 621Q469 592 458 551T441 475L395 471Q396 477 400 495T404 524Q404 558 380 576T311 594Q247 594 211 564T174 479Q174 425 211 391ZM443 256T424
285T375 314H259Q183 277 154 245T124 167Q124 114 161 80T257 46Q310 46 352 67T419 127T443 213Q443 256 424 285Z" />
<glyph unicode="&apos;" glyph-name="quotesingle" horiz-adv-x="177" d="M152 514T124 429L97 415L87 417Q103 525 108 635L178 649L184 641Q152 514 124 429Z" />
<glyph unicode="(" glyph-name="parenleft" horiz-adv-x="297" d="M107 445T155 514T258 619T312 649H317L327 620L325 616Q325 621 286 591T210 502T163 351L142 178Q138 149 138 116Q138 39 161 -12T212 -92T241 -115V-120L216 -146H212Q212 -151 173 -122T101
-37T69 107Q69 123 73 163L94 336Q107 445 155 514Z" />
<glyph unicode=")" glyph-name="parenright" horiz-adv-x="301" d="M197 58T149 -11T46 -116T-8 -146H-12L-22 -117L-21 -113Q-21 -118 18 -88T94 1T142 152L163 325Q167 353 167 385Q167 463 144 515T92 595T63 618L64 623L88 649H92Q92 655 131 625T203 539T235
394Q235 369 232 340L210 167Q197 58 149 -11Z" />
<glyph unicode="*" glyph-name="asterisk" horiz-adv-x="435" d="M304 720T296 685T277 616L243 611L237 615Q237 649 235 682T232 725Q238 727 259 732T299 737L306 730Q304 720 296 685ZM133 661T164 643T224 603L218 570L212 565Q180 576 148 584T106 594Q106
600 107 621T115 662L124 666Q133 661 164 643ZM412 575T376 572T305 570L291 599L292 607Q325 617 355 629T395 646Q399 641 410 623T427 586L423 577Q412 575 376 572ZM309 428T295 461T270 528L294 551L302 552Q321 524 342 499T370 466Q366 461 353 445T323
417L314 418Q309 428 295 461ZM136 481T163 505T220 549L249 533L252 526Q232 499 215 471T192 434Q186 436 166 444T130 464L129 473Q136 481 163 505Z" />
<glyph unicode="+" glyph-name="plus" horiz-adv-x="486" d="M304 474T294 408T277 291Q325 291 388 293T472 297L477 287L463 236L270 235Q262 168 256 114T247 41L196 30L188 36L214 235L25 234L20 243L37 292L221 291L246 492L299 500L308 494Q304 474 294 408Z" />
<glyph unicode="," glyph-name="comma" horiz-adv-x="228" d="M69 99T93 99Q115 99 129 79T144 21Q144 -31 102 -77T4 -157L-14 -142V-132Q21 -108 43 -75T65 -11Q65 9 56 27T33 59L35 73Q69 99 93 99Z" />
<glyph unicode="-" glyph-name="hyphen" horiz-adv-x="311" d="M274 236L40 210L34 218L47 270L215 290Q244 293 259 295T279 299L285 290L274 236Z" />
<glyph unicode="." glyph-name="period" horiz-adv-x="303" d="M95 -12T83 2T70 38Q70 66 90 86T139 107Q163 107 176 93T189 57Q189 29 169 9T119 -12Q95 -12 83 2Z" />
<glyph unicode="/" glyph-name="slash" horiz-adv-x="316" d="M321 617T270 486T167 215L46 -110H-2L-8 -102Q4 -72 45 29T121 226L286 675H333L339 665Q321 617 270 486Z" />
<glyph unicode="0" glyph-name="zero" horiz-adv-x="510" d="M131 -12T83 45T35 198Q35 284 71 354T169 464T304 505Q385 505 433 448T482 297Q482 212 446 141T349 29T214 -12Q131 -12 83 45ZM292 64T334 89T399 158T423 260Q423 333 382 378T274 424Q222 424
181 399T116 329T93 225Q93 153 133 109T240 64Q292 64 334 89Z" />
<glyph unicode="1" glyph-name="one" horiz-adv-x="340" d="M218 300T205 204T191 89Q191 64 200 54T232 44Q250 44 264 45T283 47L284 43L270 -3Q257 -2 220 -1T142 0Q111 0 71 -5T18 -12L29 34Q66 37 85 47T114 80T129 148L157 376Q158 383 158 395Q158 419
148 426T113 433Q100 433 83 431T61 427L59 430L68 472Q78 473 108 477T176 487Q285 505 277 505L281 488Q260 471 251 455T235 404Q218 300 205 204Z" />
<glyph unicode="2" glyph-name="two" horiz-adv-x="456" d="M85 94Q275 288 275 377Q275 406 259 422T212 438Q180 438 145 414T84 349H75L69 394Q100 442 150 473T247 505Q301 505 333 477T366 399Q366 365 346 328T275 232T123 68L126 61H269Q305 61 325 68T359
94T387 152L428 157Q423 143 408 95T381 0L369 -7Q332 -6 222 -3T60 0L6 -12L-1 6L85 94Z" />
<glyph unicode="3" glyph-name="three" horiz-adv-x="400" d="M33 -35T70 -35Q120 -35 162 -16T230 36T255 109Q255 154 216 176T97 199L92 204V239L156 255Q200 276 228 310T257 380Q257 408 239 425T191 442Q164 442 133 428T76 391H66L61 433Q63 434 116 469T230
505Q282 505 312 478T343 406Q343 362 309 321T219 251L218 246Q275 232 304 204T334 134Q334 81 288 25T173 -68T41 -105Q12 -105 0 -92T-13 -50Q-13 -39 -12 -32L-6 -26Q33 -35 70 -35Z" />
<glyph unicode="4" glyph-name="four" horiz-adv-x="431" d="M-10 98T-8 107T-4 126L307 504L311 505L343 495L300 143H389L394 135L379 80L293 83Q287 32 284 -19T279 -86L273 -93L201 -105L196 -96Q199 -79 207 -28T224 85Q76 89 -12 89Q-10 98 -8 107ZM231
143L259 367H250L70 143H231Z" />
<glyph unicode="5" glyph-name="five" horiz-adv-x="413" d="M340 81T291 24T169 -69T36 -105Q9 -105 -4 -93T-17 -49Q-17 -38 -16 -32L-10 -26Q29 -35 67 -35Q120 -35 164 -17T234 34T260 109Q260 153 219 179T75 224L68 235Q83 309 96 383T114 479L123 487L306
495Q334 497 347 504T371 534L405 538L367 420L360 414Q343 415 282 418T152 422L130 293Q229 272 284 237T340 141Q340 81 291 24Z" />
<glyph unicode="6" glyph-name="six" horiz-adv-x="437" d="M417 567T356 534T233 441T138 294L141 292Q143 293 186 318T253 344Q301 344 334 323T383 267T400 196Q400 141 372 94T293 17T183 -12Q113 -12 73 38T33 167Q33 310 115 406T301 554T404 598L410 593L417
563Q417 567 356 534ZM197 285T170 273T123 248Q112 202 112 171Q112 109 137 73T208 36Q259 36 291 73T323 170Q323 218 296 251T224 285Q197 285 170 273Z" />
<glyph unicode="7" glyph-name="seven" horiz-adv-x="404" d="M60 -87L53 -65L351 425L187 418Q154 416 137 408T109 382T87 325L48 319Q52 335 65 390T87 492L94 497Q104 496 138 495T210 493H413L432 465Q312 265 190 37L159 -19L124 -105H117L60 -87Z" />
<glyph unicode="8" glyph-name="eight" horiz-adv-x="466" d="M40 177T84 220T184 289Q143 314 119 345T95 420Q95 465 121 506T192 572T290 598Q347 598 386 567T426 479Q426 422 392 383T312 319Q357 292 383 260T409 181Q409 130 379 86T299 15T189 -12Q125
-12 83 20T40 110Q40 177 84 220ZM169 430T183 410T218 375T278 337Q349 378 349 460Q349 504 327 528T268 552Q226 552 198 523T169 456Q169 430 183 410ZM247 31T274 46T319 88T336 147Q336 175 320 196T282 232T217 271Q178 255 147 223T115 136Q115 93 143
62T217 31Q247 31 274 46Z" />
<glyph unicode="9" glyph-name="nine" horiz-adv-x="437" d="M26 -74T87 -41T211 51T305 198L302 201Q296 197 275 185T228 161T191 149Q143 149 110 170T61 226T44 297Q44 352 72 399T151 476T261 505Q331 505 371 455T411 326Q411 183 329 87T143 -61T40 -105L34
-100L26 -70Q26 -74 87 -41ZM264 208T321 245Q331 288 331 321Q331 383 306 420T236 457Q185 457 153 420T121 321Q121 273 148 241T220 208Q264 208 321 245Z" />
<glyph unicode=":" glyph-name="colon" horiz-adv-x="228" d="M311 -12T299 2T286 38Q286 66 306 86T355 107Q379 107 392 93T405 57Q405 29 385 9T335 -12Q311 -12 299 2ZM89 268T77 282T64 318Q64 346 84 366T133 387Q157 387 170 373T183 337Q183 309 163 289T113
268Q89 268 77 282Z" />
<glyph unicode=";" glyph-name="semicolon" horiz-adv-x="228" d="M320 99T344 99Q366 99 380 79T395 21Q395 -31 353 -77T255 -157L237 -142V-132Q272 -108 294 -75T316 -11Q316 9 307 27T284 59L286 73Q320 99 344 99ZM125 268T113 282T100 318Q100 346 120
366T169 387Q193 387 206 373T219 337Q219 309 199 289T149 268Q125 268 113 282Z" />
<glyph unicode="&lt;" glyph-name="less" horiz-adv-x="484" d="M41 297L246 383Q303 407 365 432T447 464L455 459L457 409Q438 402 376 380T262 336L109 276L108 270L259 200L422 121V110L387 70Q371 78 318 105T219 155Q163 182 111 206T40 239L33 250L41 297Z" />
<glyph unicode="=" glyph-name="equal" horiz-adv-x="486" d="M473 316L254 315L35 314L30 323L47 372L276 371Q324 371 392 373T482 377L487 367L473 316ZM453 159L235 158L15 157L11 166L27 215L256 214Q304 214 372 216T463 220L467 210L453 159Z" />
<glyph unicode="&gt;" glyph-name="greater" horiz-adv-x="484" d="M454 237L250 151Q193 127 130 102T48 70L40 75L38 125Q57 132 119 154T233 198L386 258L387 264L236 334L73 413V424L108 464Q124 456 177 429T276 379Q332 352 384 328T456 295L462 284L454 237Z" />
<glyph unicode="?" glyph-name="question" horiz-adv-x="346" d="M97 337L220 413Q286 455 286 511Q286 564 239 592T107 626L106 637L145 690L159 694Q214 692 259 672T331 617T357 542Q357 495 339 463T294 409T219 358L172 328L168 319L176 224L172 216L109
199L101 203L93 323L97 337ZM86 -12T74 2T61 38Q61 66 80 86T130 107Q153 107 166 93T179 57Q179 28 160 8T109 -12Q86 -12 74 2Z" />
<glyph unicode="@" glyph-name="at" horiz-adv-x="801" d="M432 -12T432 17Q432 29 450 112T475 225L469 227Q421 136 376 79T282 -12Q243 -12 223 25T202 124Q202 206 236 284T324 411T431 460L531 444L540 469L545 470L576 455L584 443Q579 427 564 370T531
227T500 58L504 54Q610 54 665 115T721 280Q721 367 685 429T582 524T426 557Q328 557 253 509T136 381T95 206Q95 106 133 25T250 -108T448 -166V-173L422 -209Q296 -203 206 -149T70 -6T24 188Q24 298 77 396T227 553T451 613Q549 613 626 572T747 461T790 304Q790
221 753 149T643 32T468 -12Q432 -12 432 17ZM319 69T351 108T424 217T501 373Q484 384 456 395T400 406Q369 406 339 374T291 287T272 173Q272 131 280 100T301 69Q319 69 351 108Z" />
<glyph unicode="A" glyph-name="A" horiz-adv-x="556" d="M465 73T482 59T542 39L544 36L533 -3Q522 -3 492 -2T432 0Q386 0 344 -4T289 -10L287 -3L295 33Q333 36 352 41T379 55T387 83Q387 95 383 121L365 234Q341 235 265 235Q222 235 158 227L109 119Q95 90
95 73Q95 54 107 46T148 37H204V34L194 -7Q182 -6 142 -3T62 0Q27 0 -3 -1T-43 -3L-30 42Q-1 45 17 61T56 120L304 631L360 648H368Q368 641 398 448T458 111Q465 73 482 59ZM266 271Q313 271 357 277L313 544H306L181 271H266Z" />
<glyph unicode="B" glyph-name="B" horiz-adv-x="571" d="M107 0T73 -5T29 -12L39 31Q86 40 103 57T126 118L178 542Q180 560 180 566Q180 583 173 589T149 596Q139 596 130 595T117 594L115 598L127 639Q138 638 169 637T231 636Q260 636 287 637T323 640Q408
640 461 605T514 508Q514 451 479 406T381 335Q444 321 479 284T514 196Q514 143 483 96T399 19T285 -10Q258 -10 216 -5Q206 -4 182 -2T138 0Q107 0 73 -5ZM236 348T267 345T319 341Q319 338 352 353T411 402T437 491Q437 547 399 574T281 602Q271 602 267 598T260
579L252 530Q233 416 223 349Q236 348 267 345ZM188 108Q187 104 187 95Q187 64 211 51T291 37Q355 37 394 76T433 180Q433 229 404 260T316 302L216 300L188 108Z" />
<glyph unicode="C" glyph-name="C" horiz-adv-x="601" d="M229 -12T170 20T78 113T45 253Q45 363 94 453T228 596T417 648Q452 648 490 643T556 633T590 625L593 619Q591 613 584 591T566 532T548 455L505 451Q506 457 510 477T514 510Q514 594 383 594Q310 594
253 555T164 445T132 282Q132 168 183 101T322 33Q388 33 434 72T508 193L551 197Q546 182 530 132T505 37L499 28Q499 27 471 17T401 -3T307 -12Q229 -12 170 20Z" />
<glyph unicode="D" glyph-name="D" horiz-adv-x="675" d="M270 -10T220 -5T140 0Q110 0 75 -5T28 -12L39 31Q85 40 103 57T126 117L178 542Q180 560 180 566Q180 583 174 589T150 596Q140 596 130 595T116 594L115 598L126 639Q136 638 165 637T226 636Q266 636
306 637T362 640Q447 640 513 607T616 513T653 376Q653 272 603 183T469 41T286 -12Q270 -10 220 -5ZM278 596T271 592T262 574Q243 451 234 403Q216 289 204 208T191 107Q191 78 201 63T236 41T305 35Q383 35 442 75T534 189T567 356Q567 471 498 533T298 596Q278
596 271 592Z" />
<glyph unicode="E" glyph-name="E" horiz-adv-x="567" d="M185 55T199 48T257 41Q339 41 374 49T427 81T459 164L500 169L502 164Q497 150 482 100T455 -2L450 -7Q418 -6 318 -3T161 0Q116 0 78 -4T29 -10L40 33Q84 39 102 56T125 117L178 542Q180 560 180 566Q180
583 173 589T149 596Q139 596 130 595T116 594L115 597L126 639Q138 638 175 637T257 636Q372 636 435 638T546 648L548 643Q546 637 540 617T524 558T506 479L462 475Q464 481 467 502T471 540Q471 563 460 573T421 587T329 590Q294 590 282 588T264 579T256 551L225
352L324 351Q345 351 386 355T442 362L445 358L425 302Q411 303 372 304T290 305Q253 305 216 298Q210 256 199 187Q185 100 185 80Q185 55 199 48Z" />
<glyph unicode="F" glyph-name="F" horiz-adv-x="490" d="M186 98T186 81Q186 60 194 50T222 40Q241 40 262 41T291 43L292 39L279 -4Q264 -3 223 -2T137 0Q108 0 74 -5T29 -12L39 31Q85 40 102 57T125 117L178 542Q180 560 180 566Q180 583 173 589T149 596Q139
596 130 595T116 594L115 597L126 639Q138 638 175 637T257 636Q358 636 420 638T528 648L530 643Q528 637 522 616T505 556T487 476L444 472Q446 479 449 501T453 541Q453 564 443 574T409 587T329 590Q294 590 282 588T264 579T256 551L223 335L322 334Q341 334
376 338T424 345L426 341L407 284Q395 285 361 286T288 287Q253 287 213 280L188 108Q186 98 186 81Z" />
<glyph unicode="G" glyph-name="G" horiz-adv-x="640" d="M518 299T543 301T575 304L576 284Q546 264 536 195Q531 163 527 125T522 73L523 43L517 35Q517 34 486 22T408 -1T307 -12Q229 -12 170 20T78 113T45 253Q45 363 94 453T228 596T417 648Q452 648 490
643T556 633T590 625L593 619Q591 613 584 591T566 532T548 455L505 451Q506 457 510 477T514 510Q514 594 383 594Q310 594 253 555T164 445T132 282Q132 168 183 101T322 33Q357 33 387 41T437 60T457 72L472 198Q473 206 473 218Q473 239 463 245T425 252H358L357
256L371 303Q372 303 407 301T492 299Q518 299 543 301Z" />
<glyph unicode="H" glyph-name="H" horiz-adv-x="723" d="M629 636T711 646L703 603Q666 598 652 587T633 546Q565 129 565 84Q565 60 573 51T601 41Q612 41 645 44Q645 43 645 43T645 41L632 -3Q618 -3 611 -2Q547 0 513 0H482Q452 0 432 -1T407 -2L420 41Q452
42 468 50T492 81T507 149L526 303L377 304Q336 304 215 293L198 173L194 145Q187 103 187 81Q187 57 194 50T223 42Q234 42 267 45L268 41L254 -3Q246 -2 223 -1T176 0Q132 0 81 -4T28 -12L39 31Q75 38 92 49T118 82T130 151L178 542Q180 562 180 566Q180 584
174 590T149 596L117 594L115 597L127 640Q193 636 233 636Q266 636 333 646L325 603Q295 598 282 591T263 567T250 511L223 347L387 346Q436 346 533 356L556 542Q558 560 558 565Q558 583 551 589T527 596L494 594L492 597L505 640Q515 639 542 638T595 636Q629
636 711 646Z" />
<glyph unicode="I" glyph-name="I" horiz-adv-x="346" d="M291 598T276 587T256 546Q186 140 186 85Q186 61 194 52T223 42Q241 42 255 43T274 45L276 41L262 -3Q249 -2 213 -1T137 0Q107 0 72 -5T26 -12L38 31Q84 40 102 58T126 118L178 542Q180 560 180 565Q180
583 173 589T149 596Q137 596 125 595T108 594L107 597L119 640Q121 640 161 638T232 636Q260 636 295 640T342 646L332 603Q291 598 276 587Z" />
<glyph unicode="J" glyph-name="J" horiz-adv-x="313" d="M170 560T170 565Q170 582 163 588T139 595Q127 595 113 594T92 591V594L103 636H206Q230 636 267 639T316 645L308 603Q273 598 262 588T245 546Q230 453 211 330T180 118Q167 16 124 -46T-4 -143L-16
-111L-13 -103Q30 -79 55 -52T93 14T114 114L168 542Q170 560 170 565Z" />
<glyph unicode="K" glyph-name="K" horiz-adv-x="601" d="M180 560T180 566Q180 583 173 589T149 596Q139 596 130 595T117 594L115 597L127 640Q138 639 169 638T232 636Q258 636 290 640T333 646L325 603Q288 598 273 585T253 543L188 109Q185 91 185 79Q185
58 194 50T223 42Q238 42 250 43T267 45L269 41L254 -3Q242 -2 208 -1T137 0L28 -1L43 42Q75 45 91 52T114 74T126 118L178 542Q180 560 180 566ZM442 517Q478 552 478 571Q478 595 421 599L419 603L431 644Q442 643 477 640T535 636Q558 636 586 637T622 640L624
634L614 595Q589 591 567 575T493 510L310 336L446 118Q476 71 501 52T559 33L562 30L553 -2Q543 -4 514 -9T479 -14Q456 -14 431 8T382 72L242 315L244 328L442 517Z" />
<glyph unicode="L" glyph-name="L" horiz-adv-x="485" d="M478 182Q473 167 457 112T427 -4L422 -9Q395 -7 309 -4T167 0Q122 0 85 -4T38 -10L50 33Q88 39 104 57T125 117L178 542Q179 551 179 564Q179 583 173 589T149 596Q139 596 130 595T116 594L115 597L127
640Q128 640 165 638T233 636Q259 636 291 640T333 646L325 604Q295 599 283 593T265 570T250 508Q234 422 211 269T188 91Q188 70 194 60T216 45T264 41Q323 41 352 51T399 89T435 182L477 186L478 182Z" />
<glyph unicode="M" glyph-name="M" horiz-adv-x="813" d="M248 454Q233 519 231 529H227L209 438Q138 74 138 66Q138 41 164 41L204 42L205 39L191 -4Q134 0 99 0Q77 0 17 -8L28 35Q59 39 74 56T98 113Q102 136 122 226Q189 535 189 555Q189 578 171 590T111 605L109
609L120 641L143 640Q199 636 223 636Q232 636 286 640Q309 510 340 368T396 134H400Q479 298 624 639Q623 640 650 638L684 636Q723 636 789 642L790 638L781 604Q738 599 720 587T699 549Q694 505 686 333T678 115Q678 71 685 56T714 41L741 43L742 40L728 -3Q656
0 638 0Q607 0 540 -8L549 35Q579 39 594 51T612 85Q617 126 633 529H628Q563 385 374 -13L353 -19L248 454Z" />
<glyph unicode="N" glyph-name="N" horiz-adv-x="689" d="M639 636T669 639T709 645L699 601Q665 596 647 582T625 538L543 -28L518 -42Q450 96 385 221T278 424T225 522H221L161 81Q160 76 160 67Q160 53 166 48T186 42H235L237 39L223 -4Q213 -3 181 -2T123
0Q100 0 72 -3T34 -8L45 35Q76 39 92 53T112 98L179 541Q180 545 180 553Q180 576 163 586T102 602L101 607L112 641Q121 640 149 638T193 636Q212 636 231 637T255 640Q313 523 372 411T470 226T520 134H524L576 552Q580 595 549 595L513 594L511 598L525 640Q534
639 560 638T614 636Q639 636 669 639Z" />
<glyph unicode="O" glyph-name="O" horiz-adv-x="665" d="M224 -12T167 22T78 117T45 254Q45 362 91 452T215 595T387 648Q460 648 518 614T610 519T644 382Q644 274 598 184T471 41T296 -12Q224 -12 167 22ZM381 35T437 75T525 185T557 343Q557 418 534 474T467
562T368 593Q300 593 245 553T159 443T127 285Q127 210 150 154T214 66T311 35Q381 35 437 75Z" />
<glyph unicode="P" glyph-name="P" d="M424 640T479 601T535 489Q535 428 502 372T414 281T299 246H207L184 92Q182 78 182 75Q182 57 191 49T222 41Q238 41 253 42T275 45L276 41L262 -3Q253 -2 228 -1T177 0Q137 0 87 -3T34 -8L46 35Q90 43 105 59T126 117L178
542Q180 560 180 565Q180 583 173 589T149 596Q139 596 130 595T117 594L115 598L127 640Q129 640 166 638T232 636Q259 636 289 637T332 640Q424 640 479 601ZM385 297T421 344T457 469Q457 534 417 565T290 596Q271 596 268 594T263 582Q240 467 217 301L317
286Q385 297 421 344Z" />
<glyph unicode="Q" glyph-name="Q" horiz-adv-x="670" d="M736 -148Q730 -153 711 -169T670 -199T640 -214Q592 -214 551 -199T452 -143T287 -12Q218 -10 163 25T76 120T45 254Q45 362 91 452T215 595T387 648Q460 648 518 614T610 519T644 382Q644 289 609 208T511
71T371 -3V-6Q465 -80 529 -110T651 -141Q680 -141 704 -137T729 -131L733 -133L736 -148ZM127 210T150 154T214 66T311 35Q381 35 437 75T525 185T557 343Q557 418 534 474T467 562T368 593Q300 593 245 553T159 443T127 285Q127 210 150 154Z" />
<glyph unicode="R" glyph-name="R" horiz-adv-x="585" d="M190 122Q186 88 186 81Q186 55 199 47T249 39L250 36L237 -4Q225 -3 192 -2T121 -1Q88 -1 62 -2T28 -4L42 39Q74 43 90 50T114 72T126 117L178 541Q180 559 180 564Q180 582 173 589T149 596Q139 596
130 595T117 594L115 598L127 640Q138 639 169 638T232 636Q261 636 289 637T329 640Q412 640 467 603T522 503Q522 436 482 382T365 293L450 115Q474 67 497 49T560 30L563 27L554 -5L473 -16Q449 -16 425 10T383 79L303 276H212L190 122ZM508 413T448 382T415
387T443 486Q443 543 403 572T281 602Q272 602 268 598T260 579Q239 472 221 328L319 318Q508 413 448 382Z" />
<glyph unicode="S" glyph-name="S" horiz-adv-x="507" d="M152 -12T118 -5T62 10T36 21L32 31Q34 37 40 60T53 122T66 205L107 210Q101 161 101 128Q101 89 111 69T145 40T211 32Q277 32 319 66T361 154Q361 190 334 217T255 276Q197 311 169 330T119 379T96 450Q96
504 126 549T210 621T328 648Q366 648 399 643T454 632T480 624L482 619Q478 606 465 557T441 450L405 446L400 451Q402 458 406 482T411 525Q411 566 388 582T306 599Q249 599 210 569T170 492Q170 462 189 439T243 390Q243 390 297 357Q345 328 373 308T422 260T442
195Q442 137 411 90T322 15T192 -12Q152 -12 118 -5Z" />
<glyph unicode="T" glyph-name="T" horiz-adv-x="523" d="M186 597T156 590T114 562T84 476L40 472Q44 487 55 537T75 640L85 647L161 636H459L541 647L549 640Q544 588 544 539T543 476L499 472Q497 537 490 560T456 590T351 601Q336 530 305 325T273 92Q273
65 284 53T320 41Q342 41 356 42T375 44L377 40L363 -3Q348 -3 306 -2T223 0Q183 0 146 -1T94 -4L106 36Q154 41 173 49T201 81T218 162L271 601Q186 597 156 590Z" />
<glyph unicode="U" glyph-name="U" horiz-adv-x="655" d="M175 225T175 202Q175 124 210 83T315 41Q395 41 442 85T500 215Q506 259 518 380T535 542Q536 550 536 563Q536 583 530 589T506 596Q494 596 481 595T463 594V598L474 639Q486 638 517 637T581 636Q607
636 636 640T675 646L665 603Q635 599 621 594T601 579T592 546L550 206Q537 103 468 46T286 -12Q196 -12 149 34T101 167Q101 188 104 210L145 542Q147 560 147 566Q147 583 140 589T115 596Q105 596 95 595T82 594L81 598L93 639Q104 638 135 637T199 636Q225
636 257 640T300 646L291 603Q255 598 241 587T222 546L178 252Q175 225 175 202Z" />
<glyph unicode="V" glyph-name="V" horiz-adv-x="584" d="M117 567T97 580T39 595L38 599L50 639Q63 639 95 638T159 636Q190 636 237 641T299 648L301 641L292 604Q252 601 233 597T208 584T201 560Q201 531 229 345T267 93H275Q285 114 298 141T327 201Q408
366 451 457T494 563Q494 582 479 590T432 599H381L379 603L390 644Q403 643 447 640T531 636Q560 636 593 637T637 640L624 595Q594 594 581 585T553 547L285 5L227 -17L122 538Q117 567 97 580Z" />
<glyph unicode="W" glyph-name="W" horiz-adv-x="893" d="M468 405H462L272 5L213 -17Q206 32 179 201T121 538Q116 567 97 580T42 595L40 599L51 639Q63 639 95 638T157 636Q199 636 242 641T297 648L299 641L292 604Q252 601 232 597T205 584T197 559Q197 524
223 341T260 93H266Q305 177 385 343L451 480Q449 493 445 509Q441 527 440 536Q433 567 416 580T364 595L363 599L375 639Q387 639 419 638T481 636Q517 636 562 641T621 648L622 641L614 604Q573 601 554 597T527 584T519 560Q519 530 546 345T583 93H589L634
187Q804 544 804 568Q804 584 789 591T742 599H699L697 603L709 644Q721 643 762 640T841 636Q868 636 900 637T942 640L930 595Q902 593 889 585T862 547L592 5L535 -17L468 405Z" />
<glyph unicode="X" glyph-name="X" horiz-adv-x="627" d="M613 594T593 584T555 555T499 496L362 342L478 124Q499 84 527 65T600 41L589 -3Q577 -2 543 -1T471 0Q437 0 388 -3T323 -8L321 -1L329 35Q372 37 393 46T415 74Q415 90 401 116L316 280L210 159Q172
115 161 97T149 64Q149 52 159 46T196 37L198 34L186 -7Q175 -6 140 -3T82 0Q52 0 25 -1T-11 -4L-14 3L-4 41Q38 53 75 84T170 180L293 316L190 517Q171 553 142 573T68 600V604L77 640Q92 639 133 638T214 636Q262 636 298 639T344 645L346 638L339 605Q295 602
274 593T253 568Q253 545 337 374L386 432Q437 492 464 527T492 576Q492 588 482 594T444 603L443 607L452 644Q453 644 490 640T557 636Q580 636 610 637T649 640L652 634L642 599Q613 594 593 584Z" />
<glyph unicode="Y" glyph-name="Y" horiz-adv-x="512" d="M584 634L573 599Q541 593 524 583T491 555T445 490Q441 483 431 469L314 294Q298 272 292 247T276 154L270 110Q267 91 267 78Q267 58 275 50T303 41Q318 41 331 42T350 44L352 40L338 -3Q325 -2 290
-1T219 0Q189 0 155 -5T110 -12L121 31Q157 39 173 50T197 81T209 141L214 186Q216 212 216 221Q216 257 200 301L137 483L130 503Q116 544 108 561T82 587T30 600L28 604L39 640Q49 639 81 638T142 636Q176 636 220 639T279 645L281 638L273 605Q224 601 207 593T190
567Q190 551 207 492T243 376T267 304H271L410 522Q431 554 431 575Q431 587 419 594T379 603L377 607L388 644Q389 644 425 640T492 636Q515 636 543 637T581 640L584 634Z" />
<glyph unicode="Z" glyph-name="Z" horiz-adv-x="544" d="M87 3L18 -3L10 28L439 592L269 586Q224 585 196 573T151 532T122 451L78 447Q80 455 87 482T103 554T119 639L130 648L297 637L541 630L548 602Q415 440 295 283T111 40L305 47Q355 48 390 86T453 210L496
215Q493 207 485 179T466 103T447 13L431 -3L87 3Z" />
<glyph unicode="[" glyph-name="bracketleft" horiz-adv-x="297" d="M56 -81T77 53T106 250Q114 313 126 448T142 629L321 640L325 634L315 603L203 579L123 -76L231 -100L234 -107L224 -137L49 -126Q56 -81 77 53Z" />
<glyph unicode="\" glyph-name="backslash" horiz-adv-x="316" d="M144 675L199 226Q211 131 226 30T247 -102L240 -110H191L150 215Q132 354 114 485T89 665L98 675H144Z" />
<glyph unicode="]" glyph-name="bracketright" horiz-adv-x="297" d="M249 584T228 450T199 253Q192 190 180 55T163 -126L-17 -137L-20 -131L-10 -100L102 -76L182 579L74 603L71 610L81 640L256 629Q249 584 228 450Z" />
<glyph unicode="^" glyph-name="asciicircum" horiz-adv-x="485" d="M308 452T324 395T358 275Q377 211 393 158T416 87L373 57L362 58L309 239L263 407H257L181 253Q154 202 125 140T87 59L38 66L35 75Q44 94 75 156T137 276L244 479L292 481L302 473Q308 452 324 395Z" />
<glyph unicode="_" glyph-name="underscore" horiz-adv-x="439" d="M393 -142L58 -143Q8 -144 -45 -144L-50 -135L-33 -86L197 -87Q265 -87 328 -84Q402 -82 403 -81L407 -91L393 -142Z" />
<glyph unicode="`" glyph-name="grave" horiz-adv-x="382" d="M152 712L162 714Q175 698 221 645T312 542L292 523L283 521Q231 568 181 608T115 660L114 671L152 712Z" />
<glyph unicode="a" glyph-name="a" horiz-adv-x="461" d="M341 60T354 69T413 119L425 118L438 94Q371 31 342 10T294 -12Q280 -12 271 -5T262 15Q262 37 305 225L299 227Q250 137 205 80T112 -12Q74 -12 53 23T32 122Q32 203 65 282T152 410T261 460L361 444L370
469L375 470L406 455L414 443Q390 363 367 256T331 64L334 60Q341 60 354 69ZM150 69T183 111T256 223T331 373Q308 387 280 396T233 406Q199 406 169 373T121 286T102 171Q102 127 111 98T133 69Q150 69 183 111Z" />
<glyph unicode="b" glyph-name="b" horiz-adv-x="453" d="M95 270T122 451T149 650Q149 670 139 679T107 689H66L72 727Q139 727 233 733L242 721Q215 608 186 461T141 202L144 200Q194 307 234 367T318 464Q363 464 391 421T420 307Q420 227 388 154T304 37T195
-8Q165 -8 129 -2T67 16L57 35Q95 270 122 451ZM282 381T232 297T121 69Q146 60 180 53T233 46Q262 46 289 76T334 156T351 259Q351 307 337 344T305 381Q282 381 232 297Z" />
<glyph unicode="c" glyph-name="c" horiz-adv-x="344" d="M198 405T169 373T122 290T104 183Q104 121 122 84T173 47Q203 47 233 71T282 134L296 133L311 109Q282 56 238 22T150 -12Q96 -12 65 32T34 153Q34 230 66 302T151 419T260 464Q285 464 308 459T345 443L350
432L316 365L302 362Q271 405 229 405Q198 405 169 373Z" />
<glyph unicode="d" glyph-name="d" horiz-adv-x="463" d="M341 60T352 68T413 119L425 118L438 94Q375 35 345 12T298 -12Q262 -12 262 17Q262 30 280 112T305 225L298 227Q249 137 204 79T112 -12Q74 -12 53 23T32 124Q32 204 66 282T153 410T261 460L333 448L359
645L360 656Q360 673 350 681T318 689H277L283 727Q321 727 374 729T444 733L453 721Q446 688 423 573T372 311T331 64L334 60Q341 60 352 68ZM159 69T216 157T328 374Q304 388 277 397T230 406Q198 406 169 373T121 285T102 173Q102 130 110 100T131 69Q159 69
216 157Z" />
<glyph unicode="e" glyph-name="e" horiz-adv-x="359" d="M340 323T285 278T102 190Q98 126 117 87T172 48Q202 48 232 71T282 134L296 133L311 109Q282 56 238 22T150 -12Q96 -12 65 32T34 153Q34 228 67 300T153 418T261 464Q299 464 319 444T340 386Q340 323
285 278ZM203 406T178 383T133 319T106 232Q193 259 231 289T269 360Q269 406 229 406Q203 406 178 383Z" />
<glyph unicode="f" glyph-name="f" horiz-adv-x="257" d="M38 439L117 451L126 531Q133 591 163 639T238 714T337 742Q363 742 391 738T438 727L442 716L411 653L392 650Q336 683 293 683Q214 683 200 569L185 449L330 450L334 447L326 407L190 408L180 402L128
-75Q119 -154 78 -198T-27 -242Q-58 -242 -84 -229T-117 -196Q-113 -179 -102 -153T-83 -112H-69Q-70 -149 -51 -172T1 -195Q27 -195 48 -173T73 -116Q78 -76 82 0L85 57L113 397L106 402L37 405L34 410L38 439Z" />
<glyph unicode="g" glyph-name="g" horiz-adv-x="444" d="M39 -241T2 -223T-59 -175T-80 -115L-78 -110Q-23 -66 109 12L110 21Q86 35 73 69T59 149Q59 222 91 294T175 413T277 460L379 444L390 469L395 470L426 455L434 446Q364 316 355 238Q352 210 345 94Q341
21 339 0Q332 -57 291 -113T192 -205T80 -241Q39 -241 2 -223ZM188 87T236 163T347 375Q285 406 246 406Q217 406 190 376T145 297T128 196Q128 153 139 120T166 87Q188 87 236 163ZM177 -183T222 -137T277 -11L302 196L294 198Q248 113 219 74T153 8Q126 -11 85
-38Q40 -67 20 -82T-1 -107Q-1 -124 16 -141T60 -171T113 -183Q177 -183 222 -137Z" />
<glyph unicode="h" glyph-name="h" horiz-adv-x="490" d="M350 60T363 70T422 119L434 118L447 94Q340 -12 307 -12Q276 -12 276 17Q276 37 284 69T312 165Q332 228 342 267T352 330Q352 348 343 359T318 371Q287 371 236 296T132 98L121 14Q120 9 96 0T59 -9L52
0Q67 96 107 360T148 650Q148 670 138 679T106 689H65L71 727Q109 727 162 729T232 733L241 721Q236 700 219 622T179 429T140 202L145 199Q197 300 249 368T348 464Q380 464 403 436T427 367Q427 340 415 298T379 189Q346 96 340 64L343 60Q350 60 363 70Z" />
<glyph unicode="i" glyph-name="i" horiz-adv-x="264" d="M140 60T154 70T212 119L224 118L237 94Q131 -12 97 -12Q81 -12 74 -4T67 23Q89 153 103 251T118 366Q118 389 109 398T76 408H35L42 446Q110 446 204 452L213 440Q188 359 165 252T130 64L133 60Q140
60 154 70ZM150 578T139 591T128 623Q128 649 147 668T193 688Q214 688 225 675T236 643Q236 617 217 598T170 578Q150 578 139 591Z" />
<glyph unicode="j" glyph-name="j" horiz-adv-x="245" d="M156 592T145 604T133 636Q133 663 152 682T197 702Q216 702 227 690T239 658Q239 631 220 612T175 592Q156 592 145 604ZM110 -80T68 -141T-48 -241L-63 -222L-60 -214Q-20 -185 4 -154T44 -78T68 38Q76
84 97 213T118 365Q118 388 108 398T74 408H33L41 446Q79 446 131 448T200 452L210 440Q205 420 189 349T153 184T124 21Q110 -80 68 -141Z" />
<glyph unicode="k" glyph-name="k" horiz-adv-x="445" d="M211 194Q281 229 314 263T347 334Q347 350 338 360T314 371Q283 371 231 295T127 97L116 14Q115 9 91 0T54 -9L47 0Q62 96 102 360T143 650Q143 670 133 679T101 689H60L66 727Q104 727 157 729T227 733L236
721Q231 700 214 622T174 429T135 202L140 199Q192 300 244 368T343 464Q375 464 397 437T419 372Q419 326 380 278T265 186Q293 142 320 105T364 47T387 20L389 8L328 -24L315 -17L207 179L211 194Z" />
<glyph unicode="l" glyph-name="l" horiz-adv-x="250" d="M128 60T142 70T200 119L212 118L225 94Q119 -12 85 -12Q54 -12 54 17Q54 21 65 93T86 231Q148 616 148 649Q148 670 138 679T106 689H65L71 727Q109 727 162 729T232 733L241 721Q234 690 211 581T161
325T118 64L121 60Q128 60 142 70Z" />
<glyph unicode="m" glyph-name="m" horiz-adv-x="736" d="M595 60T608 69T668 119L680 118L693 94Q583 -12 551 -12Q520 -12 520 17Q520 36 529 70T559 165Q581 231 591 269T602 330Q602 348 593 359T568 371Q536 371 482 290T372 79L360 14Q359 9 335 0T298 -9L291
0Q302 46 330 176T358 330Q358 348 349 359T324 371Q294 371 244 296T144 99L133 14Q132 9 108 0T71 -9L64 0Q73 53 96 200T119 368Q119 389 109 398T76 408H35L42 446Q80 446 133 448T204 452L213 440Q210 431 199 396T174 307T152 202L155 199Q206 301 257 369T354
464Q386 464 408 437T431 371Q431 350 414 287T390 202L393 199Q442 296 496 365T600 464Q632 464 653 438T674 371Q674 342 661 298T623 184Q592 94 585 64L588 60Q595 60 608 69Z" />
<glyph unicode="n" glyph-name="n" horiz-adv-x="496" d="M461 94Q355 -12 321 -12Q290 -12 290 17Q290 37 298 69T326 165Q346 228 356 267T366 330Q366 348 357 359T332 371Q301 371 250 295T146 97L135 14Q134 9 110 0T73 -9L66 0Q86 114 103 232T121 368Q121
389 111 398T78 408H37L44 446Q113 446 206 452L215 440Q197 389 180 322T154 202L159 199Q211 300 263 368T362 464Q394 464 416 437T438 368Q438 341 426 298T391 187Q361 97 354 64L357 60Q364 60 377 69T436 119L448 118L461 94Z" />
<glyph unicode="o" glyph-name="o" horiz-adv-x="406" d="M96 -12T65 33T34 152Q34 233 65 305T149 420T261 464Q314 464 344 425T375 315Q375 228 344 153T260 33T146 -12Q96 -12 65 33ZM219 43T245 71T285 148T300 260Q300 327 279 365T219 404Q187 404 161
378T121 305T106 202Q106 132 128 88T186 43Q219 43 245 71Z" />
<glyph unicode="p" glyph-name="p" horiz-adv-x="465" d="M13 -197T24 -184T45 -133Q55 -97 88 122T121 368Q121 389 111 398T78 408H37L44 446Q112 446 206 452L215 440Q175 326 153 205L157 202Q209 311 248 370T330 464Q375 464 403 421T432 307Q432 233 401
160T320 39T220 -8L125 5L104 -140Q103 -146 103 -157Q103 -175 112 -182T146 -189H187L188 -195L182 -228Q73 -228 -16 -235L-10 -199Q13 -197 24 -184ZM294 381T244 296T136 75Q163 62 196 54T253 46Q279 46 305 77T347 158T363 259Q363 307 349 344T317 381Q294
381 244 296Z" />
<glyph unicode="q" glyph-name="q" horiz-adv-x="442" d="M303 223L296 224Q248 134 208 78T127 -12Q86 -12 60 30T34 139Q34 215 67 290T154 412T261 460L359 444L380 496L387 498L420 487L427 475Q411 446 381 315T327 45T302 -144Q302 -168 309 -177T333 -187H369L371
-193L366 -227Q300 -227 229 -232T158 -239L164 -200Q192 -196 206 -190T229 -168T243 -123L273 51L303 223ZM164 69T214 150T329 374Q302 389 276 397T230 406Q198 406 169 374T121 291T102 184Q102 138 113 104T141 69Q164 69 214 150Z" />
<glyph unicode="r" glyph-name="r" horiz-adv-x="346" d="M73 51T96 195T119 364Q119 388 110 398T76 408H35L42 446Q80 446 133 448T204 452L213 440Q210 432 202 403T180 326T159 233L163 232Q206 329 259 392T352 460Q361 454 367 437T374 400Q374 383 372
372T366 357T362 351L352 348Q342 358 327 358Q289 358 240 296T148 127L133 14Q132 9 108 0T71 -9L64 0Q73 51 96 195Z" />
<glyph unicode="s" glyph-name="s" horiz-adv-x="339" d="M57 87T81 61T153 34Q182 34 202 53T223 98Q223 121 207 142T160 189Q127 218 110 234T79 274T66 324Q66 361 87 393T145 444T222 464Q256 464 283 454T325 424Q318 403 291 346H277Q266 379 243 397T190
416Q166 416 150 401T133 362Q133 334 163 302Q182 283 203 265Q245 229 267 201T289 137Q289 99 266 65T204 9T124 -12Q78 -12 47 3T7 44Q13 67 24 95T43 138H57Q57 87 81 61Z" />
<glyph unicode="t" glyph-name="t" horiz-adv-x="285" d="M267 104Q221 53 180 21T116 -12Q89 -12 73 3T57 44L58 55L113 398L108 402L39 405L36 410L40 439L120 452L136 572L226 607L232 595Q228 583 216 541T192 449L314 450L318 447L310 407L192 408L181 402L120
95L119 86Q119 60 143 60Q157 60 179 75T242 129L255 128L267 104Z" />
<glyph unicode="u" glyph-name="u" horiz-adv-x="488" d="M462 94Q400 36 369 12T322 -12Q286 -12 286 16Q286 33 328 226L321 228Q232 57 139 -12Q99 -12 75 11T51 72Q51 92 62 133T92 239Q105 281 115 319T125 372Q125 391 115 399T83 408H42L50 446Q118 446
212 452L221 440Q179 323 151 226T122 102Q122 84 129 76T152 67Q180 67 234 148T347 357L364 453L373 456L433 447L440 439Q416 359 392 253T355 64L358 60Q365 60 378 69T437 119L449 118L462 94Z" />
<glyph unicode="v" glyph-name="v" horiz-adv-x="421" d="M133 1Q131 80 121 183T97 362Q93 385 85 393T56 402Q43 401 27 400T4 397L7 435Q45 440 92 448T155 459L166 449Q188 275 187 58H196Q261 152 297 228T334 346Q334 370 324 387T300 415T286 425L290 442L371
464Q387 454 396 434T406 388Q406 336 355 234T206 -11H148L133 1Z" />
<glyph unicode="w" glyph-name="w" horiz-adv-x="643" d="M289 194T323 294L306 437L313 447L369 464Q385 454 394 434T404 388Q404 359 386 313L413 58H422Q484 149 520 227T556 347Q556 370 543 392T508 425L512 442L593 464Q610 453 619 433T628 388Q628 286
432 -11H374L359 1L338 199H331Q297 134 206 -11H148L133 1Q131 80 121 183T97 362Q93 385 85 393T56 402Q49 402 4 397L7 435Q65 442 155 459L166 449Q188 266 187 58H196Q289 194 323 294Z" />
<glyph unicode="x" glyph-name="x" horiz-adv-x="462" d="M436 464T452 456T477 434Q460 391 443 356H429Q415 411 388 411Q363 411 337 373T269 239Q294 134 307 97T334 60Q342 60 359 71T423 119L435 118L448 94Q387 32 357 10T301 -12Q287 -12 275 4T249 61T215
176Q171 75 130 32T37 -12Q13 -12 -3 -2T-20 24Q-15 42 -5 68T15 108H29Q27 74 35 55T61 35Q112 35 191 226Q169 303 158 336T140 380T125 392Q117 392 102 381T47 333L34 334L22 358Q73 414 108 439T169 464Q182 464 192 449T215 398T247 290Q289 382 329 423T416
464Q436 464 452 456Z" />
<glyph unicode="y" glyph-name="y" horiz-adv-x="438" d="M388 464Q404 454 413 434T423 388Q423 290 243 21Q152 -114 92 -174T-15 -235Q-44 -235 -65 -225T-91 -198Q-90 -182 -85 -162T-73 -124H-59Q-29 -157 5 -157Q69 -157 151 -43Q139 166 113 362Q109 385
101 393T72 402Q65 402 20 397L23 435L171 459L182 449Q202 303 202 82V48H212Q351 266 351 346Q351 368 339 389T303 425L307 442L388 464Z" />
<glyph unicode="z" glyph-name="z" horiz-adv-x="398" d="M55 327T67 371T85 454L99 464Q126 460 205 450T309 439Q319 439 324 441T335 451L351 471L395 464L400 445Q316 346 234 245T105 82L134 89Q160 89 204 78Q210 77 233 72T276 67Q304 67 323 83T349 132L367
130Q375 105 375 91Q375 49 349 19T287 -12Q267 -12 248 -7T203 9Q173 21 150 27T102 33Q61 33 10 3L-1 20L283 384L182 385Q142 385 122 371T90 320L51 314Q55 327 67 371Z" />
<glyph unicode="{" glyph-name="braceleft" horiz-adv-x="297" d="M97 280T125 303T153 361Q153 383 144 432Q134 488 134 517Q134 572 171 610T272 649Q288 649 305 647T327 643L329 638L318 608Q314 609 300 611T274 613Q240 613 223 588T206 524Q206 506 207
489T209 458Q213 408 213 388Q213 334 189 305T129 265L128 259Q187 235 187 169Q187 149 181 124T160 55Q148 18 142 -3T136 -40Q136 -65 149 -81T188 -97Q200 -97 215 -95T236 -91L239 -97L228 -125Q224 -126 208 -129T173 -133Q123 -133 95 -104T67 -30Q67 -6
75 17T102 85Q116 115 123 134T130 168Q130 199 108 218T47 247L54 268Q97 280 125 303Z" />
<glyph unicode="|" glyph-name="bar" horiz-adv-x="355" d="M279 745T255 570T219 291L152 -258L93 -269L85 -263Q92 -204 112 -44T152 276L216 796L277 807L287 801Q279 745 255 570Z" />
<glyph unicode="}" glyph-name="braceright" horiz-adv-x="297" d="M210 236T182 213T154 155Q154 133 163 84Q173 28 173 -1Q173 -56 135 -94T35 -133Q19 -133 2 -131T-20 -127L-22 -122L-11 -92Q-7 -93 7 -95T32 -97Q66 -97 83 -72T100 -8Q100 22 97 58Q96 72
95 90T94 128Q94 182 118 211T178 251V257Q120 281 120 347Q120 367 126 392T147 461Q170 530 170 556Q170 581 158 597T119 613Q106 613 91 611T70 607L68 613L79 641Q83 642 99 645T134 649Q184 649 212 620T240 546Q240 522 232 499T205 431Q191 401 184 382T177
348Q177 317 199 298T259 269L253 248Q210 236 182 213Z" />
<glyph unicode="~" glyph-name="asciitilde" horiz-adv-x="486" d="M41 223V228L126 317L142 321Q160 321 194 314T263 298Q294 290 323 284T366 278Q376 278 391 290T418 315T434 333H440L459 312V307L374 218L358 214Q340 214 306 221T237 237Q206 245 177 251T134
257Q124 257 109 245T82 220T66 202H60L41 223Z" />
<glyph unicode="&#xa0;" glyph-name="uni00A0" horiz-adv-x="169" />
<glyph unicode="&#xa1;" glyph-name="exclamdown" horiz-adv-x="273" d="M214 464T226 450T239 414Q239 386 220 366T170 345Q147 345 134 359T121 395Q121 424 140 444T191 464Q214 464 226 450ZM119 -224L35 -242L27 -231L136 243L165 250L175 242L128 -214L119 -224Z" />
<glyph unicode="&#xa2;" glyph-name="cent" horiz-adv-x="358" d="M279 388T254 399L179 48Q207 52 234 75T278 134L292 133L307 109Q282 62 244 30T167 -10L136 -151L109 -154L105 -147L134 -11Q85 -7 58 37T30 153Q30 225 59 293T135 408T235 462L276 654L304
658L308 649L268 464Q313 461 341 443L346 432L312 365L298 362Q279 388 254 399ZM100 132T112 98T148 52L223 405Q193 404 164 372T118 288T100 183Q100 132 112 98Z" />
<glyph unicode="&#xa3;" glyph-name="sterling" horiz-adv-x="509" d="M438 119T438 95Q438 50 413 19T352 -12Q330 -12 305 -7T241 10Q195 22 169 27T118 33Q75 33 32 3L25 7L15 41Q122 110 134 204L140 252Q141 275 131 283T84 293L81 299L92 333L151 344L153
361Q162 432 192 485T269 568T372 598Q401 598 428 594T469 583L473 572L442 509L424 506Q369 539 328 539Q246 539 227 415L215 337Q270 337 312 338T369 340L372 337L355 284Q342 285 302 286T207 287L195 208Q181 128 119 78L173 89Q203 89 259 77Q311 67 333
67Q398 67 414 142L431 140Q438 119 438 95Z" />
<glyph unicode="&#xa4;" glyph-name="currency" horiz-adv-x="461" d="M104 397T141 444Q119 470 103 488T82 513L85 525L128 551L184 482Q221 506 264 506Q306 506 338 482L413 557L425 554L448 514L372 445Q389 416 389 375Q389 328 356 281L416 215L412 204L368
174L313 240Q273 213 228 213Q183 213 150 240Q123 214 103 196T77 173L67 176L48 215Q50 215 118 277Q104 305 104 343Q104 397 141 444ZM152 312T175 287T234 261Q277 261 309 293T341 370Q341 407 318 432T258 458Q216 458 184 426T152 349Q152 312 175 287Z"
/>
<glyph unicode="&#xa5;" glyph-name="yen" horiz-adv-x="514" d="M203 429T211 405H210L266 248L373 407Q382 420 386 429T390 447Q390 454 377 458T342 464V471L351 508Q353 508 385 505T446 502Q472 502 493 503T523 505L527 498L517 461Q480 455 463 442T415
384L367 316L477 318L482 309L475 279H340L300 222Q289 204 286 183L461 187L465 178L459 148H280Q278 134 275 109T270 69Q270 54 277 49T303 43L341 44L342 36L329 -2Q317 -2 286 -1T222 0Q198 0 165 -4T122 -10L132 33Q167 39 181 49T199 78T210 148L38 147L34
154L42 183H211Q208 212 198 236L180 279L54 278L50 285L58 314H165Q151 351 149 358Q134 398 124 417T97 447T48 460V469Q51 481 59 505Q68 504 95 503T152 502Q184 502 247 507Q256 508 262 508T270 509L273 499L266 465Q228 461 216 455T203 438Q203 429 211
405Z" />
<glyph unicode="&#xa6;" glyph-name="brokenbar" horiz-adv-x="355" d="M163 370Q199 654 216 796L277 807L287 801Q281 759 265 638T229 376L167 367L163 370ZM204 175Q186 26 172 -96T152 -258L92 -269L84 -263L137 166L201 178L204 175Z" />
<glyph unicode="&#xa7;" glyph-name="section" horiz-adv-x="490" d="M457 169T419 117T324 36Q319 5 294 -28T229 -83T146 -105Q100 -105 71 -84T42 -31Q42 -13 51 19T68 60H83Q86 7 112 -25T181 -58Q214 -58 238 -35T263 23Q263 58 240 86T167 156Q110 202 79
241T48 334Q48 382 83 429T178 511Q183 548 206 579T265 630T338 649Q375 649 402 635T429 602Q429 588 419 559T400 522H386Q377 556 353 578T299 600Q274 600 256 580T238 529Q238 494 262 465T338 393Q396 346 426 309T457 222Q457 169 419 117ZM394 118T394
180Q394 213 370 243T294 319Q241 368 213 402T178 477Q141 454 125 430T109 375Q109 340 133 310T209 233Q261 187 290 152T325 74Q394 118 394 180Z" />
<glyph unicode="&#xa8;" glyph-name="dieresis" horiz-adv-x="382" d="M138 546T126 559T114 591Q114 611 128 625T163 639Q181 639 192 627T203 594Q203 574 189 560T155 546Q138 546 126 559ZM298 546T286 559T274 591Q274 611 288 625T323 639Q341 639 352
627T363 594Q363 574 349 560T315 546Q298 546 286 559Z" />
<glyph unicode="&#xa9;" glyph-name="copyright" horiz-adv-x="665" d="M47 350T93 428T216 552T379 598Q452 598 510 562T602 463T636 325Q636 236 590 158T467 34T304 -12Q231 -12 172 24T80 123T47 261Q47 350 93 428ZM88 200T116 146T195 60T309 28Q383 28
449 68T555 175T595 321Q595 386 567 440T488 526T374 558Q300 558 234 518T128 411T88 265Q88 200 116 146ZM266 125T228 162T189 263Q189 321 214 367T285 439T388 466Q415 466 445 461T484 453L486 449Q483 442 476 417T462 361L432 358Q433 362 434 371T436
390Q436 431 370 431Q313 431 279 389T245 276Q245 220 270 188T340 155Q374 155 396 174T434 235L464 237Q461 229 453 202T440 151L436 146Q433 144 419 139T382 130T331 125Q266 125 228 162Z" />
<glyph unicode="&#xaa;" glyph-name="ordfeminine" horiz-adv-x="324" d="M250 405T260 413T292 439L302 438L311 419Q269 377 247 360T210 343Q184 343 184 365Q184 375 195 425T208 481L204 482Q174 429 148 396T94 343Q64 343 47 366T30 433Q30 483 52 532T110
612T181 643L240 632L245 647L251 650L288 641L293 631Q290 622 282 589T262 505T244 407L246 405Q250 405 260 413ZM126 407T159 458T221 580Q207 589 191 594T161 600Q144 600 129 581T104 530T94 467Q94 442 98 425T110 407Q126 407 159 458Z" />
<glyph unicode="&#xab;" glyph-name="guillemotleft" horiz-adv-x="411" d="M386 375L266 216L349 71L346 61L322 46L178 212L180 227L366 400L386 385V375ZM226 375L106 216L189 71L186 61L162 46L18 212L20 227L206 400L226 385V375Z" />
<glyph unicode="&#xac;" glyph-name="logicalnot" horiz-adv-x="486" d="M445 276T438 241T427 177Q421 126 417 89T411 41L360 30L352 36L378 236L245 235L25 234L20 243L37 292L266 291Q314 291 370 293T443 297L448 287Q445 276 438 241Z" />
<glyph unicode="&#xad;" glyph-name="uni00AD" horiz-adv-x="311" d="M274 236L40 210L34 218L47 270L215 290Q244 293 259 295T279 299L285 290L274 236Z" />
<glyph unicode="&#xae;" glyph-name="registered" horiz-adv-x="449" d="M62 546T93 598T175 680T285 711Q334 711 373 687T435 621T457 529Q457 468 426 416T344 334T235 303Q186 303 147 327T85 393T62 485Q62 546 93 598ZM97 447T115 413T166 358T239 338Q286
338 328 363T397 432T423 525Q423 567 405 601T354 656T281 676Q234 676 192 651T123 582T97 489Q97 447 115 413ZM178 433T183 440T191 470L204 581L205 590Q205 599 195 599H185L183 603L188 620L229 619H240L270 621Q304 621 323 608T342 572Q342 527 288 503L310
460Q327 428 345 428L348 424Q347 412 339 410T308 407Q289 407 276 439L256 494H232Q225 461 225 448Q225 439 229 436T246 433L248 429L244 412L213 413H201Q187 413 175 412T158 411L162 432Q178 433 183 440ZM236 520Q236 520 263 517Q298 530 298 564Q298
597 253 597Q249 597 248 595T246 589L236 520Z" />
<glyph unicode="&#xaf;" glyph-name="overscore" horiz-adv-x="382" d="M374 576L238 575L100 574L95 583L110 628L258 627Q288 627 329 629T383 633L387 623L374 576Z" />
<glyph unicode="&#xb0;" glyph-name="degree" horiz-adv-x="290" d="M60 547T79 579T130 630T198 649Q244 649 274 617T304 536Q304 499 285 467T235 416T167 397Q121 397 91 429T60 510Q60 547 79 579ZM102 483T123 461T176 439Q211 439 237 466T263 532Q263
563 241 585T188 607Q153 607 128 580T102 514Q102 483 123 461Z" />
<glyph unicode="&#xb1;" glyph-name="plusminus" horiz-adv-x="486" d="M305 478T295 416T278 304Q326 304 390 306T474 310L478 300L464 249L272 248Q264 183 258 132T250 64L199 53L191 59Q193 76 200 129T215 248L26 247L22 256L38 305L222 304L247 495L299
503L308 497Q305 478 295 416ZM424 -73L89 -74Q40 -75 -13 -75L-17 -66L-1 -17L228 -18Q296 -18 359 -15Q434 -13 434 -12L438 -22L424 -73Z" />
<glyph unicode="&#xb2;" glyph-name="uni00B2" horiz-adv-x="318" d="M89 446Q144 507 173 554T202 631Q202 669 158 669Q133 669 109 653T63 607H55L51 648Q75 683 111 705T181 728Q224 728 251 707T278 651Q278 613 243 561T112 407L114 402H190Q221 402 234
413T260 459L299 463Q295 453 284 418T267 352L258 346Q234 347 173 349T57 351L16 344L12 369L89 446Z" />
<glyph unicode="&#xb3;" glyph-name="uni00B3" horiz-adv-x="284" d="M56 399T80 399Q122 399 150 419T179 471Q179 498 157 510T88 523L83 528V560L125 569Q150 581 166 601T183 641Q183 657 173 666T147 676Q131 676 111 669T74 648H67L61 685Q91 703 118 715T173
728Q209 728 232 710T255 661Q255 633 234 607T176 565L175 560Q249 538 249 481Q249 449 221 417T148 364T61 343Q40 343 31 352T22 384Q22 394 23 400L30 407Q56 399 80 399Z" />
<glyph unicode="&#xb4;" glyph-name="acute" horiz-adv-x="382" d="M350 650T300 609T197 521L188 523L168 542Q213 591 259 645T318 715L328 713L366 672L365 661Q350 650 300 609Z" />
<glyph unicode="&#xb5;" glyph-name="uni00B5" horiz-adv-x="518" d="M495 97Q474 28 422 -11Q377 -11 356 13T335 92Q335 101 337 129L341 167L334 169Q295 74 261 34T185 -7Q169 2 158 20T136 69L127 65Q115 -55 115 -193V-224Q100 -229 71 -234T33 -240L18
-229L105 194Q104 319 122 448L144 461H155L212 433L143 162Q152 86 190 86Q225 86 270 147T352 304Q366 385 383 443L415 463Q448 440 467 414Q432 335 388 242L378 190Q374 170 374 151Q374 118 387 101T425 84Q452 84 489 105L495 97Z" />
<glyph unicode="&#xb6;" glyph-name="paragraph" horiz-adv-x="539" d="M371 588T368 590T346 592Q290 592 261 538T231 393Q231 344 242 305T275 227L273 212Q182 220 124 272T65 417Q65 479 94 530T175 611T294 641Q325 641 375 639L419 637Q453 637 489 638T540
640L529 598L527 594Q485 596 468 587T446 549Q429 487 386 154Q375 65 355 10T292 -75T176 -105Q126 -105 92 -84T58 -20Q58 2 72 30T106 78H121Q119 54 119 45Q119 -5 139 -31T196 -58Q236 -58 259 -40T294 19T316 134L371 578Q371 588 368 590Z" />
<glyph unicode="&#xb7;" glyph-name="middot" horiz-adv-x="229" d="M81 168T69 182T57 218Q57 246 76 266T125 287Q149 287 162 273T175 237Q175 209 155 189T105 168Q81 168 69 182Z" />
<glyph unicode="&#xb8;" glyph-name="cedilla" horiz-adv-x="383" d="M194 23L161 -50Q167 -54 187 -70T220 -102T233 -135Q233 -160 213 -183T163 -219T105 -233Q82 -233 63 -224T43 -199Q43 -183 75 -141H83Q81 -168 93 -183T129 -198Q150 -198 165 -187T180
-158Q180 -143 160 -125T107 -85L152 23H194Z" />
<glyph unicode="&#xb9;" glyph-name="uni00B9" horiz-adv-x="240" d="M175 616T162 525T149 415Q149 399 154 393T173 386Q184 386 193 387T205 388L206 385L195 349Q186 349 161 350T109 351Q87 351 58 348T19 344L28 379Q58 381 72 392T89 430L115 639Q117 661
111 667T87 674Q77 674 68 673T55 671L53 674L60 706Q108 712 132 716Q170 722 188 724T210 728L214 713Q201 703 195 692T184 662Q175 616 162 525Z" />
<glyph unicode="&#xba;" glyph-name="ordmasculine" horiz-adv-x="291" d="M78 343T56 372T33 453Q33 505 53 549T109 620T185 647Q225 647 247 621T269 546Q269 490 249 444T193 370T116 343Q78 343 56 372ZM169 387T186 422T203 515Q203 555 192 577T159 599Q132
599 115 565T97 478Q97 436 109 412T141 387Q169 387 186 422Z" />
<glyph unicode="&#xbb;" glyph-name="guillemotright" horiz-adv-x="411" d="M184 71L303 230L221 375L223 385L247 400L392 234L390 219L204 46L183 61L184 71ZM24 71L143 230L61 375L63 385L87 400L232 234L230 219L44 46L23 61L24 71Z" />
<glyph unicode="&#xbc;" glyph-name="onequarter" horiz-adv-x="666" d="M175 532T162 441T149 331Q149 315 154 309T173 302Q184 302 193 303T205 304L206 301L195 265Q186 265 161 266T109 267Q87 267 58 264T19 260L28 295Q58 297 72 308T89 346L115 555Q117
577 111 583T87 590Q77 590 68 589T55 587L53 590L60 622Q108 628 132 632Q170 638 188 640T210 644L214 629Q201 619 195 608T184 578Q175 532 162 441ZM513 602T424 468T280 245Q209 131 148 35T65 -95L27 -76L22 -64Q44 -31 107 66T242 275L498 678L537 659L542
645Q513 602 424 468ZM558 376L562 377L601 371L576 152H628L632 145L621 101L570 103Q566 73 564 44T562 6L557 0L495 -7L491 -1Q493 9 498 38T508 104L360 107L366 141L558 376ZM514 152L529 277H523L423 152H514Z" />
<glyph unicode="&#xbd;" glyph-name="onehalf" horiz-adv-x="683" d="M175 532T162 441T149 331Q149 315 154 309T173 302Q184 302 193 303T205 304L206 301L195 265Q186 265 161 266T109 267Q87 267 58 264T19 260L28 295Q58 297 72 308T89 346L115 555Q117 577
111 583T87 590Q77 590 68 589T55 587L53 590L60 622Q108 628 132 632Q170 638 188 640T210 644L214 629Q201 619 195 608T184 578Q175 532 162 441ZM513 602T424 468T280 245Q209 131 148 35T65 -95L27 -76L22 -64Q44 -31 107 66T242 275L498 678L537 659L542
645Q513 602 424 468ZM439 95Q494 156 523 203T552 280Q552 318 508 318Q483 318 459 302T413 256H405L401 297Q425 332 461 354T531 377Q574 377 601 356T628 300Q628 262 593 210T462 56L464 51H540Q571 51 584 62T610 108L649 112Q645 102 634 67T617 1L608
-5Q584 -4 523 -2T407 0L366 -7L362 18L439 95Z" />
<glyph unicode="&#xbe;" glyph-name="threequarters" horiz-adv-x="710" d="M56 315T80 315Q122 315 150 335T179 387Q179 414 157 426T88 439L83 444V476L125 485Q150 497 166 517T183 557Q183 573 173 582T147 592Q131 592 111 585T74 564H67L61 601Q91 619
118 631T173 644Q209 644 232 626T255 577Q255 549 234 523T176 481L175 476Q249 454 249 397Q249 365 221 333T148 280T61 259Q40 259 31 268T22 300Q22 310 23 316L30 323Q56 315 80 315ZM557 602T468 468T324 245Q253 131 192 35T109 -95L71 -76L66 -64Q88 -31
151 66T286 275L542 678L581 659L586 645Q557 602 468 468ZM602 376L606 377L645 371L620 152H672L676 145L665 101L614 103Q610 73 608 44T606 6L601 0L539 -7L535 -1Q537 9 542 38T552 104L404 107L410 141L602 376ZM558 152L573 277H567L467 152H558Z" />
<glyph unicode="&#xbf;" glyph-name="questiondown" horiz-adv-x="346" d="M262 464T274 450T287 414Q287 386 267 366T218 345Q194 345 182 359T169 395Q169 423 188 443T238 464Q262 464 274 450ZM250 115L127 39Q97 19 79 -4T61 -59Q61 -112 108 -140T240 -174L241
-185L203 -238L189 -242Q134 -240 89 -220T17 -165T-9 -90Q-9 -43 9 -11T54 43T129 94L176 124L180 133L172 228L176 236L238 253L247 249L255 129L250 115Z" />
<glyph unicode="&#xc0;" glyph-name="Agrave" horiz-adv-x="556" d="M465 73T482 59T542 39L544 36L533 -3Q522 -3 492 -2T432 0Q386 0 344 -4T289 -10L287 -3L295 33Q333 36 352 41T379 55T387 83Q387 95 383 121L365 234Q341 235 265 235Q222 235 158 227L109
119Q95 90 95 73Q95 54 107 46T148 37H204V34L194 -7Q182 -6 142 -3T62 0Q27 0 -3 -1T-43 -3L-30 42Q-1 45 17 61T56 120L304 631L360 648H368Q368 641 398 448T458 111Q465 73 482 59ZM266 271Q313 271 357 277L313 544H306L181 271H266ZM247 822L256 828Q274
818 335 784T455 719L449 695L441 690Q375 715 314 736T235 764L231 774L247 822Z" />
<glyph unicode="&#xc1;" glyph-name="Aacute" horiz-adv-x="556" d="M465 73T482 59T542 39L544 36L533 -3Q522 -3 492 -2T432 0Q386 0 344 -4T289 -10L287 -3L295 33Q333 36 352 41T379 55T387 83Q387 95 383 121L365 234Q341 235 265 235Q222 235 158 227L109
119Q95 90 95 73Q95 54 107 46T148 37H204V34L194 -7Q182 -6 142 -3T62 0Q27 0 -3 -1T-43 -3L-30 42Q-1 45 17 61T56 120L304 631L360 648H368Q368 641 398 448T458 111Q465 73 482 59ZM266 271Q313 271 357 277L313 544H306L181 271H266ZM434 760T373 739T245
692L237 697L231 721Q290 752 351 786T430 830L439 824L455 776L451 766Q434 760 373 739Z" />
<glyph unicode="&#xc2;" glyph-name="Acircumflex" horiz-adv-x="556" d="M465 73T482 59T542 39L544 36L533 -3Q522 -3 492 -2T432 0Q386 0 344 -4T289 -10L287 -3L295 33Q333 36 352 41T379 55T387 83Q387 95 383 121L365 234Q341 235 265 235Q222 235 158 227L109
119Q95 90 95 73Q95 54 107 46T148 37H204V34L194 -7Q182 -6 142 -3T62 0Q27 0 -3 -1T-43 -3L-30 42Q-1 45 17 61T56 120L304 631L360 648H368Q368 641 398 448T458 111Q465 73 482 59ZM266 271Q313 271 357 277L313 544H306L181 271H266ZM352 846H366L486 735L469
713L460 712L350 777L225 712L216 713L205 735L352 846Z" />
<glyph unicode="&#xc3;" glyph-name="Atilde" horiz-adv-x="556" d="M465 73T482 59T542 39L544 36L533 -3Q522 -3 492 -2T432 0Q386 0 344 -4T289 -10L287 -3L295 33Q333 36 352 41T379 55T387 83Q387 95 383 121L365 234Q341 235 265 235Q222 235 158 227L109
119Q95 90 95 73Q95 54 107 46T148 37H204V34L194 -7Q182 -6 142 -3T62 0Q27 0 -3 -1T-43 -3L-30 42Q-1 45 17 61T56 120L304 631L360 648H368Q368 641 398 448T458 111Q465 73 482 59ZM266 271Q313 271 357 277L313 544H306L181 271H266ZM180 720L181 725L264
804L279 808Q297 808 353 790Q360 788 382 782T416 775Q426 775 440 785T467 806T482 820H488L507 799V794L424 715L408 711Q389 711 335 729Q326 732 304 738T272 744Q262 744 247 734T221 713T206 699H200L180 720Z" />
<glyph unicode="&#xc4;" glyph-name="Adieresis" horiz-adv-x="556" d="M465 73T482 59T542 39L544 36L533 -3Q522 -3 492 -2T432 0Q386 0 344 -4T289 -10L287 -3L295 33Q333 36 352 41T379 55T387 83Q387 95 383 121L365 234Q341 235 265 235Q222 235 158 227L109
119Q95 90 95 73Q95 54 107 46T148 37H204V34L194 -7Q182 -6 142 -3T62 0Q27 0 -3 -1T-43 -3L-30 42Q-1 45 17 61T56 120L304 631L360 648H368Q368 641 398 448T458 111Q465 73 482 59ZM266 271Q313 271 357 277L313 544H306L181 271H266ZM237 725T228 736T219
763Q219 785 235 801T274 818Q291 818 300 807T310 780Q310 758 294 742T254 725Q237 725 228 736ZM397 725T388 736T379 763Q379 785 395 801T434 818Q451 818 460 807T470 780Q470 758 454 742T414 725Q397 725 388 736Z" />
<glyph unicode="&#xc5;" glyph-name="Aring" horiz-adv-x="556" d="M465 73T482 59T542 39L544 36L533 -3Q522 -3 492 -2T432 0Q386 0 344 -4T289 -10L287 -3L295 33Q333 36 352 41T379 55T387 83Q387 95 383 121L365 234Q341 235 265 235Q222 235 158 227L109
119Q95 90 95 73Q95 54 107 46T148 37H204V34L194 -7Q182 -6 142 -3T62 0Q27 0 -3 -1T-43 -3L-30 42Q-1 45 17 61T56 120L304 631L360 648H368Q368 641 398 448T458 111Q465 73 482 59ZM266 271Q313 271 357 277L313 544H306L181 271H266ZM297 674T280 692T263
742Q263 783 289 810T356 838Q390 838 406 819T422 772Q422 733 396 704T328 674Q297 674 280 692ZM358 712T372 721T387 757Q387 776 376 787T343 799Q321 799 309 787T296 754Q296 733 309 723T339 712Q358 712 372 721Z" />
<glyph unicode="&#xc6;" glyph-name="AE" horiz-adv-x="778" d="M313 38T340 60T367 117V153L365 277L269 269L180 260L96 120Q83 99 79 89T75 69Q75 52 86 46T124 39H178L167 -7Q155 -6 114 -3T35 0Q15 0 -4 -1T-31 -4L-33 30Q-30 33 -20 44T6 76T38 121L329
579Q326 595 307 595Q297 595 287 594T274 593L272 597L285 640Q299 639 341 638T438 637Q555 637 619 639T726 649L728 643Q726 637 720 616T704 557T686 478L639 474Q641 480 644 500T648 537Q648 560 637 570T597 584T502 588Q459 588 446 582T433 557L435 327L551
338L641 351L645 346L626 294L543 292L435 283L441 112Q442 75 458 60T515 44Q588 44 620 52T669 84T700 166L744 171L747 166Q742 152 727 102T700 -1L695 -7Q697 -5 587 -3T404 0Q358 0 316 -4T261 -10L260 -3L266 35Q313 38 340 60ZM364 321L363 540H354L213
310L293 315L364 321Z" />
<glyph unicode="&#xc7;" glyph-name="Ccedilla" horiz-adv-x="601" d="M229 -12T170 20T78 113T45 253Q45 363 94 453T228 596T417 648Q452 648 490 643T556 633T590 625L593 619Q591 613 584 591T566 532T548 455L505 451Q506 457 510 477T514 510Q514 594 383
594Q310 594 253 555T164 445T132 282Q132 168 183 101T322 33Q388 33 434 72T508 193L551 197Q546 182 530 132T505 37L499 28Q499 27 471 17T401 -3T307 -12Q229 -12 170 20ZM336 23L303 -50Q309 -54 329 -70T362 -102T375 -135Q375 -160 355 -183T305 -219T247
-233Q224 -233 205 -224T185 -199Q185 -183 217 -141H225Q223 -168 235 -183T271 -198Q292 -198 307 -187T322 -158Q322 -143 302 -125T249 -85L294 23H336Z" />
<glyph unicode="&#xc8;" glyph-name="Egrave" horiz-adv-x="568" d="M185 55T199 48T257 41Q339 41 374 49T427 81T459 164L500 169L502 164Q497 150 482 100T455 -2L450 -7Q418 -6 318 -3T161 0Q116 0 78 -4T29 -10L40 33Q84 39 102 56T125 117L178 542Q180 560
180 566Q180 583 173 589T149 596Q139 596 130 595T116 594L115 597L126 639Q138 638 175 637T257 636Q372 636 435 638T546 648L548 643Q546 637 540 617T524 558T506 479L462 475Q464 481 467 502T471 540Q471 563 460 573T421 587T329 590Q294 590 282 588T264
579T256 551L225 352L324 351Q345 351 386 355T442 362L445 358L425 302Q411 303 372 304T290 305Q253 305 216 298Q210 256 199 187Q185 100 185 80Q185 55 199 48ZM263 822L272 828Q290 818 351 784T471 719L465 695L457 690Q391 715 330 736T251 764L247 774L263
822Z" />
<glyph unicode="&#xc9;" glyph-name="Eacute" horiz-adv-x="568" d="M185 55T199 48T257 41Q339 41 374 49T427 81T459 164L500 169L502 164Q497 150 482 100T455 -2L450 -7Q418 -6 318 -3T161 0Q116 0 78 -4T29 -10L40 33Q84 39 102 56T125 117L178 542Q180 560
180 566Q180 583 173 589T149 596Q139 596 130 595T116 594L115 597L126 639Q138 638 175 637T257 636Q372 636 435 638T546 648L548 643Q546 637 540 617T524 558T506 479L462 475Q464 481 467 502T471 540Q471 563 460 573T421 587T329 590Q294 590 282 588T264
579T256 551L225 352L324 351Q345 351 386 355T442 362L445 358L425 302Q411 303 372 304T290 305Q253 305 216 298Q210 256 199 187Q185 100 185 80Q185 55 199 48ZM450 760T389 739T261 692L253 697L247 721Q306 752 367 786T446 830L455 824L471 776L467 766Q450
760 389 739Z" />
<glyph unicode="&#xca;" glyph-name="Ecircumflex" horiz-adv-x="568" d="M185 55T199 48T257 41Q339 41 374 49T427 81T459 164L500 169L502 164Q497 150 482 100T455 -2L450 -7Q418 -6 318 -3T161 0Q116 0 78 -4T29 -10L40 33Q84 39 102 56T125 117L178 542Q180
560 180 566Q180 583 173 589T149 596Q139 596 130 595T116 594L115 597L126 639Q138 638 175 637T257 636Q372 636 435 638T546 648L548 643Q546 637 540 617T524 558T506 479L462 475Q464 481 467 502T471 540Q471 563 460 573T421 587T329 590Q294 590 282 588T264
579T256 551L225 352L324 351Q345 351 386 355T442 362L445 358L425 302Q411 303 372 304T290 305Q253 305 216 298Q210 256 199 187Q185 100 185 80Q185 55 199 48ZM368 846H382L502 735L485 713L476 712L366 777L241 712L232 713L221 735L368 846Z" />
<glyph unicode="&#xcb;" glyph-name="Edieresis" horiz-adv-x="567" d="M185 55T199 48T257 41Q339 41 374 49T427 81T459 164L500 169L502 164Q497 150 482 100T455 -2L450 -7Q418 -6 318 -3T161 0Q116 0 78 -4T29 -10L40 33Q84 39 102 56T125 117L178 542Q180
560 180 566Q180 583 173 589T149 596Q139 596 130 595T116 594L115 597L126 639Q138 638 175 637T257 636Q372 636 435 638T546 648L548 643Q546 637 540 617T524 558T506 479L462 475Q464 481 467 502T471 540Q471 563 460 573T421 587T329 590Q294 590 282 588T264
579T256 551L225 352L324 351Q345 351 386 355T442 362L445 358L425 302Q411 303 372 304T290 305Q253 305 216 298Q210 256 199 187Q185 100 185 80Q185 55 199 48ZM253 725T244 736T235 763Q235 785 251 801T290 818Q307 818 316 807T326 780Q326 758 310 742T270
725Q253 725 244 736ZM413 725T404 736T395 763Q395 785 411 801T450 818Q467 818 476 807T486 780Q486 758 470 742T430 725Q413 725 404 736Z" />
<glyph unicode="&#xcc;" glyph-name="Igrave" horiz-adv-x="347" d="M291 598T276 587T256 546Q186 140 186 85Q186 61 194 52T223 42Q241 42 255 43T274 45L276 41L262 -3Q249 -2 213 -1T137 0Q107 0 72 -5T26 -12L38 31Q84 40 102 58T126 118L178 542Q180 560
180 565Q180 583 173 589T149 596Q137 596 125 595T108 594L107 597L119 640Q121 640 161 638T232 636Q260 636 295 640T342 646L332 603Q291 598 276 587ZM149 822L158 828Q176 818 237 784T357 719L351 695L343 690Q277 715 216 736T137 764L133 774L149 822Z"
/>
<glyph unicode="&#xcd;" glyph-name="Iacute" horiz-adv-x="347" d="M291 598T276 587T256 546Q186 140 186 85Q186 61 194 52T223 42Q241 42 255 43T274 45L276 41L262 -3Q249 -2 213 -1T137 0Q107 0 72 -5T26 -12L38 31Q84 40 102 58T126 118L178 542Q180 560
180 565Q180 583 173 589T149 596Q137 596 125 595T108 594L107 597L119 640Q121 640 161 638T232 636Q260 636 295 640T342 646L332 603Q291 598 276 587ZM336 760T275 739T147 692L139 697L133 721Q192 752 253 786T332 830L341 824L357 776L353 766Q336 760
275 739Z" />
<glyph unicode="&#xce;" glyph-name="Icircumflex" horiz-adv-x="346" d="M291 598T276 587T256 546Q186 140 186 85Q186 61 194 52T223 42Q241 42 255 43T274 45L276 41L262 -3Q249 -2 213 -1T137 0Q107 0 72 -5T26 -12L38 31Q84 40 102 58T126 118L178 542Q180
560 180 565Q180 583 173 589T149 596Q137 596 125 595T108 594L107 597L119 640Q121 640 161 638T232 636Q260 636 295 640T342 646L332 603Q291 598 276 587ZM254 846H268L388 735L371 713L362 712L252 777L127 712L118 713L107 735L254 846Z" />
<glyph unicode="&#xcf;" glyph-name="Idieresis" horiz-adv-x="346" d="M291 598T276 587T256 546Q186 140 186 85Q186 61 194 52T223 42Q241 42 255 43T274 45L276 41L262 -3Q249 -2 213 -1T137 0Q107 0 72 -5T26 -12L38 31Q84 40 102 58T126 118L178 542Q180
560 180 565Q180 583 173 589T149 596Q137 596 125 595T108 594L107 597L119 640Q121 640 161 638T232 636Q260 636 295 640T342 646L332 603Q291 598 276 587ZM139 725T130 736T121 763Q121 785 137 801T176 818Q193 818 202 807T212 780Q212 758 196 742T156
725Q139 725 130 736ZM299 725T290 736T281 763Q281 785 297 801T336 818Q353 818 362 807T372 780Q372 758 356 742T316 725Q299 725 290 736Z" />
<glyph unicode="&#xd0;" glyph-name="Eth" horiz-adv-x="684" d="M457 640T523 607T626 513T663 376Q663 272 613 183T479 41T296 -12Q280 -10 230 -5T150 0Q120 0 85 -5T38 -12L49 31Q95 40 113 57T136 117L159 304H26L20 311L31 343H164L188 542Q190 560 190
566Q190 583 184 589T160 596Q150 596 140 595T126 594L125 598L136 639Q146 638 175 637T236 636Q276 636 316 637T372 640Q457 640 523 607ZM393 35T452 75T544 189T577 356Q577 471 508 533T308 596Q288 596 281 592T272 574L235 343H396L400 336L390 304H228Q201
131 201 107Q201 78 211 63T246 41T315 35Q393 35 452 75Z" />
<glyph unicode="&#xd1;" glyph-name="Ntilde" horiz-adv-x="689" d="M639 636T669 639T709 645L699 601Q665 596 647 582T625 538L543 -28L518 -42Q450 96 385 221T278 424T225 522H221L161 81Q160 76 160 67Q160 53 166 48T186 42H235L237 39L223 -4Q213 -3 181
-2T123 0Q100 0 72 -3T34 -8L45 35Q76 39 92 53T112 98L179 541Q180 545 180 553Q180 576 163 586T102 602L101 607L112 641Q121 640 149 638T193 636Q212 636 231 637T255 640Q313 523 372 411T470 226T520 134H524L576 552Q580 595 549 595L513 594L511 598L525
640Q534 639 560 638T614 636Q639 636 669 639ZM247 720L248 725L331 804L346 808Q364 808 420 790Q427 788 449 782T483 775Q493 775 507 785T534 806T549 820H555L574 799V794L491 715L475 711Q456 711 402 729Q393 732 371 738T339 744Q329 744 314 734T288
713T273 699H267L247 720Z" />
<glyph unicode="&#xd2;" glyph-name="Ograve" horiz-adv-x="663" d="M224 -12T167 22T78 117T45 254Q45 362 91 452T215 595T387 648Q460 648 518 614T610 519T644 382Q644 274 598 184T471 41T296 -12Q224 -12 167 22ZM381 35T437 75T525 185T557 343Q557 418
534 474T467 562T368 593Q300 593 245 553T159 443T127 285Q127 210 150 154T214 66T311 35Q381 35 437 75ZM302 822L311 828Q329 818 390 784T510 719L504 695L496 690Q430 715 369 736T290 764L286 774L302 822Z" />
<glyph unicode="&#xd3;" glyph-name="Oacute" horiz-adv-x="663" d="M224 -12T167 22T78 117T45 254Q45 362 91 452T215 595T387 648Q460 648 518 614T610 519T644 382Q644 274 598 184T471 41T296 -12Q224 -12 167 22ZM381 35T437 75T525 185T557 343Q557 418
534 474T467 562T368 593Q300 593 245 553T159 443T127 285Q127 210 150 154T214 66T311 35Q381 35 437 75ZM489 760T428 739T300 692L292 697L286 721Q345 752 406 786T485 830L494 824L510 776L506 766Q489 760 428 739Z" />
<glyph unicode="&#xd4;" glyph-name="Ocircumflex" horiz-adv-x="663" d="M224 -12T167 22T78 117T45 254Q45 362 91 452T215 595T387 648Q460 648 518 614T610 519T644 382Q644 274 598 184T471 41T296 -12Q224 -12 167 22ZM381 35T437 75T525 185T557 343Q557
418 534 474T467 562T368 593Q300 593 245 553T159 443T127 285Q127 210 150 154T214 66T311 35Q381 35 437 75ZM407 846H421L541 735L524 713L515 712L405 777L280 712L271 713L260 735L407 846Z" />
<glyph unicode="&#xd5;" glyph-name="Otilde" horiz-adv-x="663" d="M224 -12T167 22T78 117T45 254Q45 362 91 452T215 595T387 648Q460 648 518 614T610 519T644 382Q644 274 598 184T471 41T296 -12Q224 -12 167 22ZM381 35T437 75T525 185T557 343Q557 418
534 474T467 562T368 593Q300 593 245 553T159 443T127 285Q127 210 150 154T214 66T311 35Q381 35 437 75ZM235 720L236 725L319 804L334 808Q352 808 408 790Q415 788 437 782T471 775Q481 775 495 785T522 806T537 820H543L562 799V794L479 715L463 711Q444
711 390 729Q381 732 359 738T327 744Q317 744 302 734T276 713T261 699H255L235 720Z" />
<glyph unicode="&#xd6;" glyph-name="Odieresis" horiz-adv-x="665" d="M224 -12T167 22T78 117T45 254Q45 362 91 452T215 595T387 648Q460 648 518 614T610 519T644 382Q644 274 598 184T471 41T296 -12Q224 -12 167 22ZM381 35T437 75T525 185T557 343Q557
418 534 474T467 562T368 593Q300 593 245 553T159 443T127 285Q127 210 150 154T214 66T311 35Q381 35 437 75ZM292 725T283 736T274 763Q274 785 290 801T329 818Q346 818 355 807T365 780Q365 758 349 742T309 725Q292 725 283 736ZM452 725T443 736T434 763Q434
785 450 801T489 818Q506 818 515 807T525 780Q525 758 509 742T469 725Q452 725 443 736Z" />
<glyph unicode="&#xd7;" glyph-name="multiply" horiz-adv-x="486" d="M440 404L287 261Q318 225 357 182T409 126L404 114L359 84L243 222Q191 173 149 133T92 80L82 83L60 125L208 261Q167 310 133 350T87 405L90 416L137 442Q148 429 180 389T253 301Q303 348
346 391T404 449L414 446L440 404Z" />
<glyph unicode="&#xd8;" glyph-name="Oslash" horiz-adv-x="663" d="M575 583T609 522T644 382Q644 274 598 184T471 41T296 -12Q242 -12 194 8L137 -98L110 -92L108 -82L164 24Q109 58 77 118T45 254Q45 362 91 452T215 595T387 648Q437 648 482 631L521 708L550
701L553 689L515 616Q575 583 609 522ZM300 593T245 553T159 443T127 285Q127 220 144 168T195 83L452 572Q414 593 368 593Q300 593 245 553ZM381 35T437 75T525 185T557 343Q557 411 537 464T481 551L222 61Q262 35 311 35Q381 35 437 75Z" />
<glyph unicode="&#xd9;" glyph-name="Ugrave" horiz-adv-x="652" d="M175 225T175 202Q175 124 210 83T315 41Q395 41 442 85T500 215Q506 259 518 380T535 542Q536 550 536 563Q536 583 530 589T506 596Q494 596 481 595T463 594V598L474 639Q486 638 517 637T581
636Q607 636 636 640T675 646L665 603Q635 599 621 594T601 579T592 546L550 206Q537 103 468 46T286 -12Q196 -12 149 34T101 167Q101 188 104 210L145 542Q147 560 147 566Q147 583 140 589T115 596Q105 596 95 595T82 594L81 598L93 639Q104 638 135 637T199
636Q225 636 257 640T300 646L291 603Q255 598 241 587T222 546L178 252Q175 225 175 202ZM297 822L306 828Q324 818 385 784T505 719L499 695L491 690Q425 715 364 736T285 764L281 774L297 822Z" />
<glyph unicode="&#xda;" glyph-name="Uacute" horiz-adv-x="652" d="M175 225T175 202Q175 124 210 83T315 41Q395 41 442 85T500 215Q506 259 518 380T535 542Q536 550 536 563Q536 583 530 589T506 596Q494 596 481 595T463 594V598L474 639Q486 638 517 637T581
636Q607 636 636 640T675 646L665 603Q635 599 621 594T601 579T592 546L550 206Q537 103 468 46T286 -12Q196 -12 149 34T101 167Q101 188 104 210L145 542Q147 560 147 566Q147 583 140 589T115 596Q105 596 95 595T82 594L81 598L93 639Q104 638 135 637T199
636Q225 636 257 640T300 646L291 603Q255 598 241 587T222 546L178 252Q175 225 175 202ZM484 760T423 739T295 692L287 697L281 721Q340 752 401 786T480 830L489 824L505 776L501 766Q484 760 423 739Z" />
<glyph unicode="&#xdb;" glyph-name="Ucircumflex" horiz-adv-x="655" d="M175 225T175 202Q175 124 210 83T315 41Q395 41 442 85T500 215Q506 259 518 380T535 542Q536 550 536 563Q536 583 530 589T506 596Q494 596 481 595T463 594V598L474 639Q486 638 517
637T581 636Q607 636 636 640T675 646L665 603Q635 599 621 594T601 579T592 546L550 206Q537 103 468 46T286 -12Q196 -12 149 34T101 167Q101 188 104 210L145 542Q147 560 147 566Q147 583 140 589T115 596Q105 596 95 595T82 594L81 598L93 639Q104 638 135
637T199 636Q225 636 257 640T300 646L291 603Q255 598 241 587T222 546L178 252Q175 225 175 202ZM403 846H417L537 735L520 713L511 712L401 777L276 712L267 713L256 735L403 846Z" />
<glyph unicode="&#xdc;" glyph-name="Udieresis" horiz-adv-x="655" d="M175 225T175 202Q175 124 210 83T315 41Q395 41 442 85T500 215Q506 259 518 380T535 542Q536 550 536 563Q536 583 530 589T506 596Q494 596 481 595T463 594V598L474 639Q486 638 517
637T581 636Q607 636 636 640T675 646L665 603Q635 599 621 594T601 579T592 546L550 206Q537 103 468 46T286 -12Q196 -12 149 34T101 167Q101 188 104 210L145 542Q147 560 147 566Q147 583 140 589T115 596Q105 596 95 595T82 594L81 598L93 639Q104 638 135
637T199 636Q225 636 257 640T300 646L291 603Q255 598 241 587T222 546L178 252Q175 225 175 202ZM288 725T279 736T270 763Q270 785 286 801T325 818Q342 818 351 807T361 780Q361 758 345 742T305 725Q288 725 279 736ZM448 725T439 736T430 763Q430 785 446
801T485 818Q502 818 511 807T521 780Q521 758 505 742T465 725Q448 725 439 736Z" />
<glyph unicode="&#xdd;" glyph-name="Yacute" horiz-adv-x="520" d="M584 634L573 599Q541 593 524 583T491 555T445 490Q441 483 431 469L314 294Q298 272 292 247T276 154L270 110Q267 91 267 78Q267 58 275 50T303 41Q318 41 331 42T350 44L352 40L338 -3Q325
-2 290 -1T219 0Q189 0 155 -5T110 -12L121 31Q157 39 173 50T197 81T209 141L214 186Q216 212 216 221Q216 257 200 301L137 483L130 503Q116 544 108 561T82 587T30 600L28 604L39 640Q49 639 81 638T142 636Q176 636 220 639T279 645L281 638L273 605Q224 601
207 593T190 567Q190 551 207 492T243 376T267 304H271L410 522Q431 554 431 575Q431 587 419 594T379 603L377 607L388 644Q389 644 425 640T492 636Q515 636 543 637T581 640L584 634ZM432 760T371 739T243 692L235 697L229 721Q288 752 349 786T428 830L437
824L453 776L449 766Q432 760 371 739Z" />
<glyph unicode="&#xde;" glyph-name="Thorn" horiz-adv-x="523" d="M330 506Q421 506 469 469T518 363Q518 307 482 258T388 180T265 151H197L193 112Q191 88 191 82Q191 60 199 52T227 44Q245 44 259 45T278 47L279 43L265 -3Q251 -2 214 -1T138 0Q107 0 71 -5T24
-12L36 34Q82 43 100 60T123 120L175 540Q177 558 177 563Q177 581 170 587T146 594Q134 594 122 593T106 592L104 596L117 640Q118 640 157 639T232 637Q259 637 296 640T345 646L335 601Q295 596 281 585T260 544L252 506H330ZM234 386T217 286L205 212Q221 206
250 201T300 195Q365 203 398 241T431 344Q431 402 392 429T268 457Q252 457 248 456T242 449Q234 386 217 286Z" />
<glyph unicode="&#xdf;" glyph-name="germandbls" horiz-adv-x="549" d="M352 368T371 349T429 301Q480 265 506 235T533 160Q533 115 508 76T440 12T350 -12Q301 -12 267 4T234 41Q236 56 252 84T282 127H296Q295 120 295 108Q295 72 315 52T374 32Q405 32 431
60T457 123Q457 152 438 174T375 228Q327 264 302 293T277 365Q277 402 298 430T360 495Q396 527 413 549T430 598Q430 637 396 660T303 683Q215 683 200 569L128 -75Q119 -154 78 -198T-27 -242Q-59 -242 -85 -229T-117 -196Q-113 -179 -102 -153T-83 -112H-69Q-70
-149 -51 -172T1 -195Q24 -195 43 -178T70 -132L85 57L113 397L106 402L37 405L34 410L38 439L117 451L126 531Q134 592 164 640T242 715T345 742Q388 742 424 727T482 686T503 629Q503 584 481 554T417 486Q384 458 368 438T352 392Q352 368 371 349ZM73 -119T73
-116Q73 -119 72 -121Q73 -119 73 -116Z" />
<glyph unicode="&#xe0;" glyph-name="agrave" horiz-adv-x="461" d="M341 60T354 69T413 119L425 118L438 94Q371 31 342 10T294 -12Q280 -12 271 -5T262 15Q262 37 305 225L299 227Q250 137 205 80T112 -12Q74 -12 53 23T32 122Q32 203 65 282T152 410T261 460L361
444L370 469L375 470L406 455L414 443Q390 363 367 256T331 64L334 60Q341 60 354 69ZM150 69T183 111T256 223T331 373Q308 387 280 396T233 406Q199 406 169 373T121 286T102 171Q102 127 111 98T133 69Q150 69 183 111ZM219 714L229 716Q242 700 288 647T379
544L359 525L350 523Q298 570 248 610T182 662L181 673L219 714Z" />
<glyph unicode="&#xe1;" glyph-name="aacute" horiz-adv-x="473" d="M353 60T366 69T425 119L437 118L450 94Q383 31 354 10T306 -12Q292 -12 283 -5T274 15Q274 37 317 225L311 227Q262 137 217 80T124 -12Q86 -12 65 23T44 122Q44 203 77 282T164 410T273 460L373
444L382 469L387 470L418 455L426 443Q402 363 379 256T343 64L346 60Q353 60 366 69ZM162 69T195 111T268 223T343 373Q320 387 292 396T245 406Q211 406 181 373T133 286T114 171Q114 127 123 98T145 69Q162 69 195 111ZM378 672T328 631T225 543L216 545L196
564Q241 613 287 667T346 737L356 735L394 694L393 683Q378 672 328 631Z" />
<glyph unicode="&#xe2;" glyph-name="acircumflex" horiz-adv-x="461" d="M341 60T354 69T413 119L425 118L438 94Q371 31 342 10T294 -12Q280 -12 271 -5T262 15Q262 37 305 225L299 227Q250 137 205 80T112 -12Q74 -12 53 23T32 122Q32 203 65 282T152 410T261
460L361 444L370 469L375 470L406 455L414 443Q390 363 367 256T331 64L334 60Q341 60 354 69ZM150 69T183 111T256 223T331 373Q308 387 280 396T233 406Q199 406 169 373T121 286T102 171Q102 127 111 98T133 69Q150 69 183 111ZM298 705H312L427 552L410 530L401
529L296 626L167 529L158 530L146 552L298 705Z" />
<glyph unicode="&#xe3;" glyph-name="atilde" horiz-adv-x="461" d="M341 60T354 69T413 119L425 118L438 94Q371 31 342 10T294 -12Q280 -12 271 -5T262 15Q262 37 305 225L299 227Q250 137 205 80T112 -12Q74 -12 53 23T32 122Q32 203 65 282T152 410T261 460L361
444L370 469L375 470L406 455L414 443Q390 363 367 256T331 64L334 60Q341 60 354 69ZM150 69T183 111T256 223T331 373Q308 387 280 396T233 406Q199 406 169 373T121 286T102 171Q102 127 111 98T133 69Q150 69 183 111ZM145 574L146 579L230 668L245 672Q263
672 319 654Q326 652 348 646T382 639Q392 639 407 651T434 676T449 694H455L475 673L474 668L390 579L374 575Q355 575 301 593Q292 596 270 602T238 608Q228 608 213 596T186 571T171 553H164L145 574Z" />
<glyph unicode="&#xe4;" glyph-name="adieresis" horiz-adv-x="461" d="M341 60T354 69T413 119L425 118L438 94Q371 31 342 10T294 -12Q280 -12 271 -5T262 15Q262 37 305 225L299 227Q250 137 205 80T112 -12Q74 -12 53 23T32 122Q32 203 65 282T152 410T261
460L361 444L370 469L375 470L406 455L414 443Q390 363 367 256T331 64L334 60Q341 60 354 69ZM150 69T183 111T256 223T331 373Q308 387 280 396T233 406Q199 406 169 373T121 286T102 171Q102 127 111 98T133 69Q150 69 183 111ZM186 568T174 581T162 613Q162
633 176 647T211 661Q229 661 240 649T251 616Q251 596 237 582T203 568Q186 568 174 581ZM346 568T334 581T322 613Q322 633 336 647T371 661Q389 661 400 649T411 616Q411 596 397 582T363 568Q346 568 334 581Z" />
<glyph unicode="&#xe5;" glyph-name="aring" horiz-adv-x="461" d="M341 60T354 69T413 119L425 118L438 94Q371 31 342 10T294 -12Q280 -12 271 -5T262 15Q262 37 305 225L299 227Q250 137 205 80T112 -12Q74 -12 53 23T32 122Q32 203 65 282T152 410T261 460L361
444L370 469L375 470L406 455L414 443Q390 363 367 256T331 64L334 60Q341 60 354 69ZM150 69T183 111T256 223T331 373Q308 387 280 396T233 406Q199 406 169 373T121 286T102 171Q102 127 111 98T133 69Q150 69 183 111ZM271 546T254 564T237 614Q237 655 263
682T330 710Q364 710 380 691T396 644Q396 605 370 576T302 546Q271 546 254 564ZM332 584T346 593T361 629Q361 648 350 659T317 671Q295 671 283 659T270 626Q270 605 283 595T313 584Q332 584 346 593Z" />
<glyph unicode="&#xe6;" glyph-name="ae" horiz-adv-x="587" d="M524 133L539 109Q510 56 466 22T378 -12Q324 -12 293 32T262 153V163Q186 39 112 -12Q74 -12 53 23T32 124Q32 204 66 282T153 410T261 460L417 443Q452 464 489 464Q527 464 547 444T568 386Q568
323 513 278T330 190Q326 126 345 87T400 48Q430 48 460 71T510 134L524 133ZM149 69T182 111T255 226T331 383Q307 393 279 399T230 406Q198 406 169 373T121 285T102 173Q102 130 110 100T131 69Q149 69 182 111ZM497 406T457 406Q431 406 406 383T361 319T334
232Q421 259 459 289T497 360Q497 406 457 406Z" />
<glyph unicode="&#xe7;" glyph-name="ccedilla" horiz-adv-x="344" d="M198 405T169 373T122 290T104 183Q104 121 122 84T173 47Q203 47 233 71T282 134L296 133L311 109Q282 56 238 22T150 -12Q96 -12 65 32T34 153Q34 230 66 302T151 419T260 464Q285 464 308
459T345 443L350 432L316 365L302 362Q271 405 229 405Q198 405 169 373ZM207 23L174 -50Q180 -54 200 -70T233 -102T246 -135Q246 -160 226 -183T176 -219T118 -233Q95 -233 76 -224T56 -199Q56 -183 88 -141H96Q94 -168 106 -183T142 -198Q163 -198 178 -187T193
-158Q193 -143 173 -125T120 -85L165 23H207Z" />
<glyph unicode="&#xe8;" glyph-name="egrave" horiz-adv-x="359" d="M340 323T285 278T102 190Q98 126 117 87T172 48Q202 48 232 71T282 134L296 133L311 109Q282 56 238 22T150 -12Q96 -12 65 32T34 153Q34 228 67 300T153 418T261 464Q299 464 319 444T340
386Q340 323 285 278ZM203 406T178 383T133 319T106 232Q193 259 231 289T269 360Q269 406 229 406Q203 406 178 383ZM188 692L198 694Q211 678 257 625T348 522L328 503L319 501Q267 548 217 588T151 640L150 651L188 692Z" />
<glyph unicode="&#xe9;" glyph-name="eacute" horiz-adv-x="359" d="M340 323T285 278T102 190Q98 126 117 87T172 48Q202 48 232 71T282 134L296 133L311 109Q282 56 238 22T150 -12Q96 -12 65 32T34 153Q34 228 67 300T153 418T261 464Q299 464 319 444T340
386Q340 323 285 278ZM203 406T178 383T133 319T106 232Q193 259 231 289T269 360Q269 406 229 406Q203 406 178 383ZM335 650T285 609T182 521L173 523L153 542Q198 591 244 645T303 715L313 713L351 672L350 661Q335 650 285 609Z" />
<glyph unicode="&#xea;" glyph-name="ecircumflex" horiz-adv-x="325" d="M340 323T285 278T102 190Q98 126 117 87T172 48Q202 48 232 71T282 134L296 133L311 109Q282 56 238 22T150 -12Q96 -12 65 32T34 153Q34 228 67 300T153 418T261 464Q299 464 319 444T340
386Q340 323 285 278ZM203 406T178 383T133 319T106 232Q193 259 231 289T269 360Q269 406 229 406Q203 406 178 383ZM267 683H281L396 530L379 508L370 507L265 604L136 507L127 508L115 530L267 683Z" />
<glyph unicode="&#xeb;" glyph-name="edieresis" horiz-adv-x="359" d="M340 323T285 278T102 190Q98 126 117 87T172 48Q202 48 232 71T282 134L296 133L311 109Q282 56 238 22T150 -12Q96 -12 65 32T34 153Q34 228 67 300T153 418T261 464Q299 464 319 444T340
386Q340 323 285 278ZM203 406T178 383T133 319T106 232Q193 259 231 289T269 360Q269 406 229 406Q203 406 178 383ZM155 546T143 559T131 591Q131 611 145 625T180 639Q198 639 209 627T220 594Q220 574 206 560T172 546Q155 546 143 559ZM315 546T303 559T291
591Q291 611 305 625T340 639Q358 639 369 627T380 594Q380 574 366 560T332 546Q315 546 303 559Z" />
<glyph unicode="&#xec;" glyph-name="igrave" horiz-adv-x="318" d="M141 712L151 714Q164 698 210 645T301 542L281 523L272 521Q220 568 170 608T104 660L103 671L141 712ZM194 60T208 70T266 119L278 118L291 94Q185 -12 151 -12Q135 -12 128 -4T121 23Q143
153 157 251T172 366Q172 389 163 398T130 408H89L96 446Q164 446 258 452L267 440Q242 359 219 252T184 64L187 60Q194 60 208 70Z" />
<glyph unicode="&#xed;" glyph-name="iacute" horiz-adv-x="264" d="M140 60T154 70T212 119L224 118L237 94Q131 -12 97 -12Q81 -12 74 -4T67 23Q89 153 103 251T118 366Q118 389 109 398T76 408H35L42 446Q110 446 204 452L213 440Q188 359 165 252T130 64L133
60Q140 60 154 70ZM257 650T207 609T104 521L95 523L75 542Q120 591 166 645T225 715L235 713L273 672L272 661Q257 650 207 609Z" />
<glyph unicode="&#xee;" glyph-name="icircumflex" horiz-adv-x="264" d="M140 60T154 70T212 119L224 118L237 94Q131 -12 97 -12Q81 -12 74 -4T67 23Q89 153 103 251T118 366Q118 389 109 398T76 408H35L42 446Q110 446 204 452L213 440Q188 359 165 252T130
64L133 60Q140 60 154 70ZM189 683H203L318 530L301 508L292 507L187 604L58 507L49 508L37 530L189 683Z" />
<glyph unicode="&#xef;" glyph-name="idieresis" horiz-adv-x="264" d="M140 60T154 70T212 119L224 118L237 94Q131 -12 97 -12Q81 -12 74 -4T67 23Q89 153 103 251T118 366Q118 389 109 398T76 408H35L42 446Q110 446 204 452L213 440Q188 359 165 252T130 64L133
60Q140 60 154 70ZM77 546T65 559T53 591Q53 611 67 625T102 639Q120 639 131 627T142 594Q142 574 128 560T94 546Q77 546 65 559ZM237 546T225 559T213 591Q213 611 227 625T262 639Q280 639 291 627T302 594Q302 574 288 560T254 546Q237 546 225 559Z" />
<glyph unicode="&#xf0;" glyph-name="eth" horiz-adv-x="416" d="M269 599Q319 541 348 465T377 313Q377 227 346 152T262 33T148 -12Q98 -12 67 33T36 151Q36 231 67 302T151 417T263 460H271Q251 519 212 572L82 508L75 511L73 541L186 599Q131 662 52 704L72
737L82 741Q173 695 243 625L378 692L384 687L386 658L269 599ZM221 43T247 71T287 148T302 258Q302 324 280 362T221 401Q189 401 163 375T123 303T108 200Q108 130 130 87T188 43Q221 43 247 71Z" />
<glyph unicode="&#xf1;" glyph-name="ntilde" horiz-adv-x="496" d="M461 94Q355 -12 321 -12Q290 -12 290 17Q290 37 298 69T326 165Q346 228 356 267T366 330Q366 348 357 359T332 371Q301 371 250 295T146 97L135 14Q134 9 110 0T73 -9L66 0Q86 114 103 232T121
368Q121 389 111 398T78 408H37L44 446Q113 446 206 452L215 440Q197 389 180 322T154 202L159 199Q211 300 263 368T362 464Q394 464 416 437T438 368Q438 341 426 298T391 187Q361 97 354 64L357 60Q364 60 377 69T436 119L448 118L461 94ZM157 808L158 813L242
902L257 906Q275 906 331 888Q338 886 360 880T394 873Q404 873 419 885T446 910T461 928H467L487 907L486 902L402 813L386 809Q367 809 313 827Q304 830 282 836T250 842Q240 842 225 830T198 805T183 787H176L157 808Z" />
<glyph unicode="&#xf2;" glyph-name="ograve" horiz-adv-x="409" d="M99 -12T68 33T37 152Q37 233 68 305T152 420T264 464Q317 464 347 425T378 315Q378 228 347 153T263 33T149 -12Q99 -12 68 33ZM222 43T248 71T288 148T303 260Q303 327 282 365T222 404Q190
404 164 378T124 305T109 202Q109 132 131 88T189 43Q222 43 248 71ZM184 692L194 694Q207 678 253 625T344 522L324 503L315 501Q263 548 213 588T147 640L146 651L184 692Z" />
<glyph unicode="&#xf3;" glyph-name="oacute" horiz-adv-x="406" d="M96 -12T65 33T34 152Q34 233 65 305T149 420T261 464Q314 464 344 425T375 315Q375 228 344 153T260 33T146 -12Q96 -12 65 33ZM219 43T245 71T285 148T300 260Q300 327 279 365T219 404Q187
404 161 378T121 305T106 202Q106 132 128 88T186 43Q219 43 245 71ZM328 650T278 609T175 521L166 523L146 542Q191 591 237 645T296 715L306 713L344 672L343 661Q328 650 278 609Z" />
<glyph unicode="&#xf4;" glyph-name="ocircumflex" horiz-adv-x="410" d="M100 -12T69 33T38 152Q38 233 69 305T153 420T265 464Q318 464 348 425T379 315Q379 228 348 153T264 33T150 -12Q100 -12 69 33ZM223 43T249 71T289 148T304 260Q304 327 283 365T223
404Q191 404 165 378T125 305T110 202Q110 132 132 88T190 43Q223 43 249 71ZM264 683H278L393 530L376 508L367 507L262 604L133 507L124 508L112 530L264 683Z" />
<glyph unicode="&#xf5;" glyph-name="otilde" horiz-adv-x="405" d="M96 -12T65 33T34 152Q34 233 65 305T149 420T261 464Q314 464 344 425T375 315Q375 228 344 153T260 33T146 -12Q96 -12 65 33ZM219 43T245 71T285 148T300 260Q300 327 279 365T219 404Q187
404 161 378T121 305T106 202Q106 132 128 88T186 43Q219 43 245 71ZM107 808L108 813L192 902L207 906Q225 906 281 888Q288 886 310 880T344 873Q354 873 369 885T396 910T411 928H417L437 907L436 902L352 813L336 809Q317 809 263 827Q254 830 232 836T200
842Q190 842 175 830T148 805T133 787H126L107 808Z" />
<glyph unicode="&#xf6;" glyph-name="odieresis" horiz-adv-x="406" d="M96 -12T65 33T34 152Q34 233 65 305T149 420T261 464Q314 464 344 425T375 315Q375 228 344 153T260 33T146 -12Q96 -12 65 33ZM219 43T245 71T285 148T300 260Q300 327 279 365T219 404Q187
404 161 378T121 305T106 202Q106 132 128 88T186 43Q219 43 245 71ZM148 546T136 559T124 591Q124 611 138 625T173 639Q191 639 202 627T213 594Q213 574 199 560T165 546Q148 546 136 559ZM308 546T296 559T284 591Q284 611 298 625T333 639Q351 639 362 627T373
594Q373 574 359 560T325 546Q308 546 296 559Z" />
<glyph unicode="&#xf7;" glyph-name="divide" horiz-adv-x="486" d="M231 378T219 392T207 428Q207 456 226 476T275 497Q299 497 311 483T324 447Q324 419 305 399T255 378Q231 378 219 392ZM463 236L245 235L25 234L20 243L37 292L266 291Q314 291 382 293T472
297L477 287L463 236ZM189 29T177 43T164 79Q164 107 183 127T232 148Q256 148 268 134T281 98Q281 70 262 50T212 29Q189 29 177 43Z" />
<glyph unicode="&#xf8;" glyph-name="oslash" horiz-adv-x="406" d="M375 399T375 315Q375 228 344 153T260 33T146 -12Q124 -12 102 -1L51 -98L24 -92L22 -82L75 20Q55 41 45 75T34 152Q34 233 65 305T149 420T261 464Q285 464 302 457L345 539L374 532L377 520L333
438Q375 399 375 315ZM187 404T161 378T121 305T106 202Q106 147 120 107L264 385Q245 404 219 404Q187 404 161 378ZM219 43T245 71T285 148T300 260Q300 313 286 349L140 69Q158 43 186 43Q219 43 245 71Z" />
<glyph unicode="&#xf9;" glyph-name="ugrave" horiz-adv-x="486" d="M462 94Q400 36 369 12T322 -12Q286 -12 286 16Q286 33 328 226L321 228Q232 57 139 -12Q99 -12 75 11T51 72Q51 92 62 133T92 239Q105 281 115 319T125 372Q125 391 115 399T83 408H42L50 446Q118
446 212 452L221 440Q179 323 151 226T122 102Q122 84 129 76T152 67Q180 67 234 148T347 357L364 453L373 456L433 447L440 439Q416 359 392 253T355 64L358 60Q365 60 378 69T437 119L449 118L462 94ZM221 692L231 694Q244 678 290 625T381 522L361 503L352 501Q300
548 250 588T184 640L183 651L221 692Z" />
<glyph unicode="&#xfa;" glyph-name="uacute" horiz-adv-x="486" d="M462 94Q400 36 369 12T322 -12Q286 -12 286 16Q286 33 328 226L321 228Q232 57 139 -12Q99 -12 75 11T51 72Q51 92 62 133T92 239Q105 281 115 319T125 372Q125 391 115 399T83 408H42L50 446Q118
446 212 452L221 440Q179 323 151 226T122 102Q122 84 129 76T152 67Q180 67 234 148T347 357L364 453L373 456L433 447L440 439Q416 359 392 253T355 64L358 60Q365 60 378 69T437 119L449 118L462 94ZM368 650T318 609T215 521L206 523L186 542Q231 591 277 645T336
715L346 713L384 672L383 661Q368 650 318 609Z" />
<glyph unicode="&#xfb;" glyph-name="ucircumflex" horiz-adv-x="488" d="M462 94Q400 36 369 12T322 -12Q286 -12 286 16Q286 33 328 226L321 228Q232 57 139 -12Q99 -12 75 11T51 72Q51 92 62 133T92 239Q105 281 115 319T125 372Q125 391 115 399T83 408H42L50
446Q118 446 212 452L221 440Q179 323 151 226T122 102Q122 84 129 76T152 67Q180 67 234 148T347 357L364 453L373 456L433 447L440 439Q416 359 392 253T355 64L358 60Q365 60 378 69T437 119L449 118L462 94ZM300 683H314L429 530L412 508L403 507L298 604L169
507L160 508L148 530L300 683Z" />
<glyph unicode="&#xfc;" glyph-name="udieresis" horiz-adv-x="488" d="M462 94Q400 36 369 12T322 -12Q286 -12 286 16Q286 33 328 226L321 228Q232 57 139 -12Q99 -12 75 11T51 72Q51 92 62 133T92 239Q105 281 115 319T125 372Q125 391 115 399T83 408H42L50
446Q118 446 212 452L221 440Q179 323 151 226T122 102Q122 84 129 76T152 67Q180 67 234 148T347 357L364 453L373 456L433 447L440 439Q416 359 392 253T355 64L358 60Q365 60 378 69T437 119L449 118L462 94ZM188 546T176 559T164 591Q164 611 178 625T213 639Q231
639 242 627T253 594Q253 574 239 560T205 546Q188 546 176 559ZM348 546T336 559T324 591Q324 611 338 625T373 639Q391 639 402 627T413 594Q413 574 399 560T365 546Q348 546 336 559Z" />
<glyph unicode="&#xfd;" glyph-name="yacute" horiz-adv-x="438" d="M388 464Q404 454 413 434T423 388Q423 290 243 21Q152 -114 92 -174T-15 -235Q-44 -235 -65 -225T-91 -198Q-90 -182 -85 -162T-73 -124H-59Q-29 -157 5 -157Q69 -157 151 -43Q139 166 113
362Q109 385 101 393T72 402Q65 402 20 397L23 435L171 459L182 449Q202 303 202 82V48H212Q351 266 351 346Q351 368 339 389T303 425L307 442L388 464ZM344 650T294 609T191 521L182 523L162 542Q207 591 253 645T312 715L322 713L360 672L359 661Q344 650 294
609Z" />
<glyph unicode="&#xfe;" glyph-name="thorn" horiz-adv-x="453" d="M50 -15T99 307T149 650Q149 670 139 679T107 689H66L72 727Q110 727 163 729T233 733L242 721Q237 700 220 622T180 429T141 202L144 200Q193 305 233 366T318 464Q363 464 391 421T420 307Q420
227 388 154T304 37T195 -8Q155 -8 111 2L91 -140Q90 -146 90 -157Q90 -175 99 -182T133 -189H174L175 -195L169 -228Q100 -228 43 -231T-29 -235L-23 -199Q2 -197 14 -184T32 -133Q50 -15 99 307ZM282 381T233 298T121 69Q146 60 180 53T233 46Q262 46 289 76T334
156T351 259Q351 306 337 343T305 381Q282 381 233 298Z" />
<glyph unicode="&#xff;" glyph-name="ydieresis" horiz-adv-x="438" d="M388 464Q404 454 413 434T423 388Q423 290 243 21Q152 -114 92 -174T-15 -235Q-44 -235 -65 -225T-91 -198Q-90 -182 -85 -162T-73 -124H-59Q-29 -157 5 -157Q69 -157 151 -43Q139 166 113
362Q109 385 101 393T72 402Q65 402 20 397L23 435L171 459L182 449Q202 303 202 82V48H212Q351 266 351 346Q351 368 339 389T303 425L307 442L388 464ZM164 546T152 559T140 591Q140 611 154 625T189 639Q207 639 218 627T229 594Q229 574 215 560T181 546Q164
546 152 559ZM324 546T312 559T300 591Q300 611 314 625T349 639Q367 639 378 627T389 594Q389 574 375 560T341 546Q324 546 312 559Z" />
<glyph unicode="&#x2013;" glyph-name="endash" horiz-adv-x="439" d="M438 226L103 225Q53 224 0 224L-4 233L12 282L242 281Q407 281 448 287L452 277L438 226Z" />
<glyph unicode="&#x2014;" glyph-name="emdash" horiz-adv-x="879" d="M878 226L207 225Q136 224 83 224T0 224L-4 233L12 282L461 281Q541 281 668 283T842 286L887 287L892 277L878 226Z" />
<glyph unicode="&#x2018;" glyph-name="quoteleft" horiz-adv-x="193" d="M156 419T129 419Q105 419 90 439T74 492Q74 533 104 574T191 650L210 636L211 626Q181 604 164 577T146 526Q146 507 157 490T190 463L189 449Q156 419 129 419Z" />
<glyph unicode="&#x2019;" glyph-name="quoteright" horiz-adv-x="194" d="M113 650T140 650Q164 650 179 630T195 577Q195 536 165 495T78 419L59 433L58 443Q88 465 105 492T123 543Q123 562 112 579T79 606L80 620Q113 650 140 650Z" />
<glyph unicode="&#x201a;" glyph-name="quotesinglbase" horiz-adv-x="228" d="M320 99T344 99Q366 99 380 79T395 21Q395 -31 353 -77T255 -157L237 -142V-132Q272 -108 294 -75T316 -11Q316 9 307 27T284 59L286 73Q320 99 344 99Z" />
<glyph unicode="&#x201c;" glyph-name="quotedblleft" horiz-adv-x="343" d="M306 419T279 419Q255 419 240 439T224 492Q224 533 254 574T341 650L360 636L361 626Q331 604 314 577T296 526Q296 507 307 490T340 463L339 449Q306 419 279 419ZM156 419T129 419Q105
419 90 439T74 492Q74 533 104 574T191 650L210 636L211 626Q181 604 164 577T146 526Q146 507 157 490T190 463L189 449Q156 419 129 419Z" />
<glyph unicode="&#x201d;" glyph-name="quotedblright" horiz-adv-x="344" d="M263 650T290 650Q314 650 329 630T345 577Q345 536 315 495T228 419L209 433L208 443Q238 465 255 492T273 543Q273 562 262 579T229 606L230 620Q263 650 290 650ZM113 650T140 650Q164
650 179 630T195 577Q195 536 165 495T78 419L59 433L58 443Q88 465 105 492T123 543Q123 562 112 579T79 606L80 620Q113 650 140 650Z" />
<glyph unicode="&#x201e;" glyph-name="quotedblbase" horiz-adv-x="383" d="M65 99T89 99Q112 99 127 80T143 28Q143 -21 105 -60T15 -127L-3 -112V-102Q28 -83 48 -56T69 -3Q69 16 58 32T29 59L31 73Q65 99 89 99ZM220 99T244 99Q267 99 282 80T298 28Q298 -21
260 -60T170 -127L152 -112V-102Q183 -83 203 -56T224 -3Q224 16 213 32T184 59L186 73Q220 99 244 99Z" />
<glyph unicode="&#x2022;" glyph-name="bullet" horiz-adv-x="326" d="M106 117T82 144T57 213Q57 246 73 275T117 321T179 338Q222 338 247 310T272 241Q272 190 237 154T149 117Q106 117 82 144Z" />
<glyph unicode="&#x2039;" glyph-name="guilsinglleft" horiz-adv-x="251" d="M226 375L106 216L189 71L186 61L162 46L18 212L20 227L206 400L226 385V375Z" />
<glyph unicode="&#x203a;" glyph-name="guilsinglright" horiz-adv-x="251" d="M24 71L143 230L61 375L63 385L87 400L232 234L230 219L44 46L23 61L24 71Z" />
</font>
</defs>
</svg>
