<?xml version="1.0" standalone="no"?>
<!DOCTYPE svg PUBLIC "-//W3C//DTD SVG 1.1//EN" "http://www.w3.org/Graphics/SVG/1.1/DTD/svg11.dtd">
<svg xmlns="http://www.w3.org/2000/svg">
<defs >
<font id="HappyMonkey" horiz-adv-x="568" ><font-face
    font-family="Happy Monkey"
    units-per-em="1000"
    panose-1="2 0 5 0 0 0 0 2 0 4"
    ascent="950"
    descent="-255"
    alphabetic="0" />
<glyph unicode=" " glyph-name="space" horiz-adv-x="241" />
<glyph unicode="!" glyph-name="exclam" horiz-adv-x="251" d="M60 50V78Q60 100 78 113T128 126Q155 126 174 114T193 78V50Q193 27 173 14T127 0Q96 0 78 13T60 50ZM89 267V722Q89 749 127 749Q142 749 152 742T163 722V267Q163 254 152 247T126 239Q89 239 89 267Z" />
<glyph unicode="&quot;" glyph-name="quotedbl" horiz-adv-x="419" d="M47 639Q47 662 61 681T107 700Q166 700 166 619Q166 570 146 519T107 467Q94 467 91 484T86 531T74 577Q71 583 65 592T55 606T50 620T47 639ZM247 639Q247 662 261 681T307 700Q366 700
366 619Q366 570 346 519T307 467Q294 467 291 484T286 531T274 577Q271 583 265 592T255 606T250 620T247 639Z" />
<glyph unicode="#" glyph-name="numbersign" horiz-adv-x="711" d="M35 216Q35 231 42 241T62 252H164L216 408H142Q115 408 115 446Q115 461 122 471T142 482H240L307 685Q311 703 337 703Q353 703 365 694T378 672Q378 664 375 655L318 482H480L547 685Q551
703 577 703Q593 703 605 694T618 672Q618 664 615 655L558 482H647Q660 482 667 471T675 445Q675 408 647 408H534L482 252H567Q580 252 587 241T595 215Q595 178 567 178H458L406 19Q400 0 374 0Q359 0 349 10T338 36Q338 49 342 62L380 178H218L166 19Q160 0
134 0Q119 0 109 10T98 36Q98 49 102 62L140 178H62Q35 178 35 216ZM242 252H404L456 408H294L242 252Z" />
<glyph unicode="$" glyph-name="dollar" horiz-adv-x="616" d="M39 167Q39 182 50 198T77 214Q82 214 84 212Q113 182 168 155T280 118V329Q240 330 213 333T153 345T101 370T68 415T54 485Q54 563 119 608T280 659V726Q280 753 318 753Q333 753 343 746T354 726V657Q421
650 476 625T559 559Q560 557 560 554Q560 542 544 530T514 517Q512 517 502 522Q437 575 354 584V393Q403 392 436 386T504 364T557 313T575 227Q575 52 354 41V-29Q354 -42 343 -49T317 -57Q280 -57 280 -29V43Q131 60 46 148Q39 155 39 167ZM127 480Q127 454
138 437T173 411T220 399T280 394V586Q216 581 172 555T127 480ZM354 115Q501 124 501 233Q501 260 490 278T457 306T412 320T354 326V115Z" />
<glyph unicode="%" glyph-name="percent" horiz-adv-x="940" d="M37 439Q37 514 90 556T212 599Q272 599 322 554T373 439Q373 374 328 328T210 281Q139 281 88 327T37 439ZM111 468T111 438T141 382T209 355Q244 355 271 381T299 439Q299 469 273 497T209 525Q165
525 138 497ZM308 38Q308 47 324 75L571 584Q576 593 591 593Q610 593 623 582T636 555Q636 542 628 528L374 9Q369 -1 351 -1Q336 -1 322 11T308 38ZM569 139Q569 214 622 256T744 299Q804 299 854 254T905 139Q905 74 860 28T742 -19Q671 -19 620 27T569 139ZM643
168T643 138T673 82T741 55Q776 55 803 81T831 139Q831 169 805 197T741 225Q697 225 670 197Z" />
<glyph unicode="&amp;" glyph-name="ampersand" horiz-adv-x="566" d="M44 198Q44 264 78 306T172 383L169 387Q103 463 103 553Q103 619 153 659T269 700Q336 700 385 658T435 543Q435 476 398 434T293 356L419 209L456 270Q460 274 468 274Q485 274 497 258T510
228Q510 220 506 215L466 155L544 65Q550 58 550 49Q550 37 535 23T505 9Q494 9 488 16L419 96Q337 7 237 7Q154 7 99 52T44 198ZM118 193Q118 135 154 108T243 81Q317 81 375 148L226 321Q174 293 146 264T118 193ZM175 543Q175 494 220 441L239 418Q269 433 286
443T323 470T352 504T361 546Q361 584 335 605T271 627Q233 627 204 605T175 543Z" />
<glyph unicode="&apos;" glyph-name="quotesingle" horiz-adv-x="219" d="M47 639Q47 662 61 681T107 700Q166 700 166 619Q166 570 146 519T107 467Q94 467 91 484T86 531T74 577Q71 583 65 592T55 606T50 620T47 639Z" />
<glyph unicode="(" glyph-name="parenleft" horiz-adv-x="420" d="M41 304Q41 419 74 517T178 681T347 747Q359 747 366 746T381 736T388 712T380 686T359 674Q282 674 225 622T141 486T114 300Q114 224 130 161T173 57T232 -12T297 -52T359 -64Q371 -64 380 -76T389
-103Q389 -137 347 -137Q257 -137 186 -73T78 92T41 304Z" />
<glyph unicode=")" glyph-name="parenright" horiz-adv-x="420" d="M31 -103Q31 -88 40 -76T61 -64Q91 -64 123 -52T188 -12T247 56T289 160T306 300Q306 402 279 485T195 621T61 674Q48 674 40 685T32 712Q32 734 43 740T73 747Q170 747 241 682T346 518T379
304Q379 192 343 92T235 -72T73 -137Q31 -137 31 -103Z" />
<glyph unicode="*" glyph-name="asterisk" horiz-adv-x="436" d="M60 401Q60 412 67 417L153 475L68 533Q61 540 61 550Q61 565 74 579T102 593Q108 593 120 585L181 544V622Q181 635 192 642T218 650Q255 650 255 622V544L316 585Q323 592 333 592Q348 592 362
579T376 551Q376 538 368 533L283 475L369 417Q376 410 376 400Q376 386 362 372T332 357Q323 357 316 364L255 405V327Q255 300 217 300Q202 300 192 307T181 327V405L120 364Q110 357 103 357Q89 357 75 371T60 401Z" />
<glyph unicode="+" glyph-name="plus" horiz-adv-x="439" d="M45 266Q45 281 52 291T72 302H183V412Q183 425 194 432T220 440Q257 440 257 412V302H367Q380 302 387 291T395 265Q395 228 367 228H257V117Q257 90 219 90Q204 90 194 97T183 117V228H72Q45 228 45 266Z" />
<glyph unicode="," glyph-name="comma" horiz-adv-x="253" d="M58 68Q58 94 77 110T128 126Q193 126 193 50Q193 7 155 -47T98 -101Q80 -101 80 -89Q80 -84 88 -56T97 -14T90 3Q58 25 58 68Z" />
<glyph unicode="-" glyph-name="hyphen" horiz-adv-x="470" d="M60 266Q60 281 67 291T87 302H382Q395 302 402 291T410 265Q410 228 382 228H87Q60 228 60 266Z" />
<glyph unicode="." glyph-name="period" horiz-adv-x="253" d="M60 50V78Q60 100 78 113T128 126Q155 126 174 114T193 78V50Q193 27 173 14T127 0Q96 0 78 13T60 50Z" />
<glyph unicode="/" glyph-name="slash" horiz-adv-x="746" d="M30 -85Q30 -68 46 -48L652 699Q660 708 672 708Q688 708 702 696T716 672Q716 661 705 647L92 -110Q83 -120 69 -120Q54 -120 42 -110T30 -85Z" />
<glyph unicode="0" glyph-name="zero" horiz-adv-x="587" d="M54 348Q54 508 118 606T296 705Q410 705 471 604T533 351Q533 184 473 90T296 -5Q183 -5 119 91T54 348ZM128 347Q128 225 170 147T296 69Q379 69 419 147T459 349Q459 425 444 486T390 589T296 631Q239
631 200 589T145 485T128 347Z" />
<glyph unicode="1" glyph-name="one" horiz-adv-x="457" d="M31 489Q31 500 38 507L239 687Q252 700 266 700Q298 700 298 646V74H405Q418 74 425 63T433 37Q433 0 405 0H116Q89 0 89 38Q89 53 96 63T116 74H224V568L91 454Q84 447 74 447Q59 447 45 460T31 489Z" />
<glyph unicode="2" glyph-name="two" horiz-adv-x="549" d="M47 27Q47 78 74 126T143 208T232 279T321 346T389 417T417 497Q417 555 363 590T253 626Q214 626 174 609T134 559Q134 545 122 536T94 527Q79 527 69 535T58 560Q59 624 121 662T248 700Q289 700 330
687T407 649T467 583T490 490Q490 437 460 390T382 304T287 232T193 156T130 74H472Q485 74 492 63T500 37Q500 0 472 0H93Q47 0 47 27Z" />
<glyph unicode="3" glyph-name="three" horiz-adv-x="541" d="M56 141Q56 157 66 165T92 174Q108 174 120 165T132 142Q132 110 172 93T251 75Q333 75 375 114T417 212Q417 251 400 279T354 321T299 340T242 346Q216 346 203 358T189 387Q189 406 203 421T241
436Q301 436 337 462T374 539Q374 582 335 604T251 626Q212 626 172 609T132 559Q132 545 120 536T92 527Q77 527 67 535T56 560Q57 624 119 662T246 700Q326 700 387 655T448 533Q448 488 419 447T356 394Q411 381 450 332T490 202Q490 104 420 53T246 1Q182 1
120 39T56 141Z" />
<glyph unicode="4" glyph-name="four" horiz-adv-x="537" d="M25 231Q25 252 37 262L361 687Q374 700 388 700Q420 700 420 646V267H467Q480 267 487 256T495 230Q495 193 467 193H420V28Q420 15 409 8T383 0Q346 0 346 28V193H52Q25 193 25 231ZM134 267H346V545L134
267Z" />
<glyph unicode="5" glyph-name="five" horiz-adv-x="558" d="M61 437V673Q61 700 107 700H436Q464 700 464 663Q464 648 457 637T436 626H135V439Q198 474 283 474Q383 474 451 401T520 235Q520 143 452 72T282 0Q242 0 196 14T111 62T72 140Q72 156 82 164T108
173Q124 173 136 164T148 141Q148 109 196 92T287 74Q355 74 404 123T454 235Q454 298 404 349T286 400Q243 400 209 387T153 360T121 346Q95 346 78 368T61 437Z" />
<glyph unicode="6" glyph-name="six" horiz-adv-x="565" d="M55 327Q55 523 117 613T308 703Q382 703 434 667T488 563Q488 547 478 539T452 530Q436 530 424 539T412 562Q412 596 381 612T303 629Q261 629 229 610T178 562T148 492T132 416T128 340Q128 326 128
304T127 274Q201 431 344 431Q417 431 469 385T521 263Q521 161 455 78T285 -5Q175 -5 115 86T55 327ZM167 169Q167 125 195 97T278 69Q343 69 395 119T447 262Q447 300 422 328T350 357Q277 357 222 296T167 169Z" />
<glyph unicode="7" glyph-name="seven" horiz-adv-x="496" d="M27 664Q27 679 34 689T54 700H427Q477 700 477 675Q477 666 470 647L243 28Q233 0 206 0Q191 0 180 10T169 36Q169 44 172 51L383 626H54Q27 626 27 664Z" />
<glyph unicode="8" glyph-name="eight" horiz-adv-x="579" d="M50 202Q50 309 184 394Q137 434 115 468T92 540Q92 606 145 653T290 701T434 654T487 540Q487 470 395 394Q529 309 529 202Q529 121 463 60T288 -1Q182 -1 116 60T50 202ZM124 193Q124 143 175 108T286
73Q350 73 402 108T455 193Q455 244 396 294T281 346Q236 344 180 295T124 193ZM166 550Q166 520 198 485T286 435Q341 450 377 486T413 550Q413 584 375 605T290 626Q238 626 202 606T166 550Z" />
<glyph unicode="9" glyph-name="nine" horiz-adv-x="566" d="M45 435Q45 537 111 620T281 703Q391 703 451 612T511 371Q511 175 449 85T258 -5Q184 -5 132 31T78 135Q78 151 88 159T114 168Q130 168 142 159T154 136Q154 102 185 86T263 69Q305 69 337 88T388
136T418 206T434 282T438 358Q438 372 438 394T439 424Q365 267 222 267Q149 267 97 313T45 435ZM119 436Q119 398 144 370T216 341Q289 341 344 402T399 529Q399 573 371 601T288 629Q223 629 171 579T119 436Z" />
<glyph unicode=":" glyph-name="colon" horiz-adv-x="253" d="M60 50V78Q60 100 78 113T128 126Q155 126 174 114T193 78V50Q193 27 173 14T127 0Q96 0 78 13T60 50ZM60 350V378Q60 400 78 413T128 426Q155 426 174 414T193 378V350Q193 327 173 314T127 300Q96
300 78 313T60 350Z" />
<glyph unicode=";" glyph-name="semicolon" horiz-adv-x="256" d="M60 68Q60 94 79 110T130 126Q195 126 195 50Q195 7 157 -47T100 -101Q82 -101 82 -89Q82 -84 90 -56T99 -14T92 3Q60 25 60 68ZM62 350V378Q62 400 80 413T130 426Q157 426 176 414T195 378V350Q195
327 175 314T129 300Q98 300 80 313T62 350Z" />
<glyph unicode="&lt;" glyph-name="less" horiz-adv-x="670" d="M42 292T42 303T52 328T77 349L555 486Q561 488 565 488Q580 488 591 473T602 443Q602 427 587 419L162 303L587 188Q602 180 602 164Q602 149 591 134T565 119Q561 119 555 121L77 256Q61 264 52 278Z" />
<glyph unicode="=" glyph-name="equal" horiz-adv-x="646" d="M68 266Q68 281 75 291T95 302H550Q563 302 570 291T578 265Q578 228 550 228H95Q68 228 68 266ZM68 464Q68 479 75 489T95 500H550Q563 500 570 489T578 463Q578 426 550 426H95Q68 426 68 464Z" />
<glyph unicode="&gt;" glyph-name="greater" horiz-adv-x="670" d="M68 164Q68 180 83 188L508 303L83 419Q68 427 68 443Q68 458 79 473T105 488Q109 488 115 486L593 349Q608 342 618 328T628 303T619 278T593 256L115 121Q109 119 105 119Q90 119 79 134T68 164Z" />
<glyph unicode="?" glyph-name="question" horiz-adv-x="515" d="M36 560Q37 624 99 662T226 700Q267 700 308 687T385 649T445 583T468 490Q468 431 445 386T387 317T320 281T261 268V210Q261 182 224 182Q209 182 197 189T184 210V330Q218 332 252 341T319 368T374
420T395 497Q395 555 341 590T231 626Q192 626 152 609T112 559Q112 545 100 536T72 527Q57 527 47 535T36 560ZM160 50V78Q160 100 178 113T228 126Q255 126 274 114T293 78V50Q293 27 273 14T227 0Q196 0 178 13T160 50Z" />
<glyph unicode="@" glyph-name="at" horiz-adv-x="798" d="M51 240Q51 321 86 391T176 508T299 581T432 608Q577 608 664 527T752 310Q752 227 697 152T560 76Q527 76 527 105V182Q454 69 332 69Q277 69 236 106T195 212Q195 308 271 382T445 457Q523 457 560
411T598 283V156Q635 175 657 221T679 317Q679 407 620 470T450 534Q320 534 222 447T123 238Q123 119 183 53T345 -13Q388 -13 426 -1T479 27Q486 35 499 35Q509 35 522 23T536 0Q536 -28 476 -56T345 -84Q215 -84 133 6T51 240ZM269 212Q269 143 343 143Q398
143 461 209T525 317Q525 338 515 352T488 373T459 381T436 384Q368 384 319 334T269 212Z" />
<glyph unicode="A" glyph-name="A" horiz-adv-x="639" d="M36 37Q36 41 38 47L106 227H65Q38 227 38 265Q38 280 45 290T65 301H134L273 665Q281 681 295 690T320 700T345 690T366 665L505 301H570Q583 301 590 290T598 264Q598 227 570 227H534L603 47Q605 41
605 37Q605 22 590 11T560 0Q544 0 536 15L455 227H186L105 15Q97 0 81 0Q66 0 51 11T36 37ZM214 301H426L320 580L214 301Z" />
<glyph unicode="B" glyph-name="B" horiz-adv-x="643" d="M73 28V673Q73 700 111 700Q126 700 136 693T147 673V620Q219 701 329 701Q403 701 456 661T509 550Q509 506 486 463T412 403Q507 388 557 332T608 212Q608 113 544 48T344 -17Q227 -17 145 18Q136 0
110 0Q73 0 73 28ZM147 91Q211 57 334 57Q436 57 485 98T534 201Q534 272 473 307T312 343Q281 343 223 342T147 340V91ZM147 421Q187 416 236 416Q330 416 382 454T435 545Q435 588 406 609T329 630Q273 630 224 603T147 519V421Z" />
<glyph unicode="C" glyph-name="C" horiz-adv-x="640" d="M45 355Q45 508 155 609T416 711Q506 711 583 649Q591 642 591 631Q591 615 578 602T551 588Q541 588 534 595Q486 637 414 637Q283 637 202 553T120 356Q120 241 200 153T415 65Q503 65 558 128Q569 139
577 139Q592 139 606 124T620 95Q620 86 613 79Q536 -9 420 -9Q305 -9 218 43T88 177T45 355Z" />
<glyph unicode="D" glyph-name="D" horiz-adv-x="702" d="M73 28V673Q73 700 111 700Q126 700 136 693T147 673V665Q218 711 286 711Q436 711 546 610T657 355Q657 259 614 178T484 44T282 -9Q205 -9 147 28Q147 15 136 8T110 0Q73 0 73 28ZM147 124Q202 65 287
65Q422 65 502 153T582 356Q582 468 501 552T288 637Q217 637 147 588V124Z" />
<glyph unicode="E" glyph-name="E" horiz-adv-x="672" d="M73 51V650Q73 699 99 699H613Q626 699 633 688T641 662Q641 625 613 625H147V429H523Q536 429 543 418T551 392Q551 355 523 355H147V74H613Q626 74 633 63T641 37Q641 0 613 0H99Q82 0 78 12T73 51Z" />
<glyph unicode="F" glyph-name="F" horiz-adv-x="653" d="M73 28V650Q73 699 99 699H613Q626 699 633 688T641 662Q641 625 613 625H147V429H523Q536 429 543 418T551 392Q551 355 523 355H147V28Q147 15 136 8T109 0Q73 0 73 28Z" />
<glyph unicode="G" glyph-name="G" horiz-adv-x="672" d="M46 355Q46 456 101 539T243 666T427 711Q517 711 594 649Q602 642 602 631Q602 615 589 602T562 588Q552 588 545 595Q497 637 425 637Q293 637 207 552T121 356Q121 299 133 250T173 158T251 90T370
65Q461 65 509 130T560 297H359Q332 297 332 335Q332 350 339 360T359 371H604Q620 371 625 360T630 322Q630 173 565 82T385 -9Q299 -9 232 21T126 103T66 218T46 355Z" />
<glyph unicode="H" glyph-name="H" horiz-adv-x="718" d="M73 28V673Q73 700 111 700Q126 700 136 693T147 673V429H571V673Q571 700 609 700Q624 700 634 693T645 673V28Q645 15 634 8T608 0Q571 0 571 28V355H147V28Q147 15 136 8T110 0Q73 0 73 28Z" />
<glyph unicode="I" glyph-name="I" horiz-adv-x="220" d="M73 28V673Q73 700 111 700Q126 700 136 693T147 673V28Q147 15 136 8T110 0Q73 0 73 28Z" />
<glyph unicode="J" glyph-name="J" horiz-adv-x="503" d="M13 137Q13 153 23 161T49 170Q65 170 77 161T89 138Q89 106 129 89T208 71Q263 71 312 115T362 240V673Q362 700 400 700Q415 700 425 693T436 673V247Q436 131 363 64T203 -3Q139 -3 77 35T13 137Z" />
<glyph unicode="K" glyph-name="K" horiz-adv-x="627" d="M73 28V673Q73 700 111 700Q126 700 136 693T147 673V342L507 691Q516 700 527 700Q542 700 555 687T569 658Q569 648 562 641L301 389L631 51Q635 47 635 37Q635 23 620 12T589 0Q579 0 567 12L246 336L147
240V28Q147 15 136 8T110 0Q73 0 73 28Z" />
<glyph unicode="L" glyph-name="L" horiz-adv-x="512" d="M73 28V673Q73 700 111 700Q126 700 136 693T147 673V73H475Q488 73 495 62T503 36Q503 0 475 0H131Q73 0 73 28Z" />
<glyph unicode="M" glyph-name="M" horiz-adv-x="774" d="M73 28V673Q73 686 88 694T123 703Q144 703 151 691L387 342L624 691Q631 703 649 703T684 694T701 673V28Q701 15 690 8T664 0Q627 0 627 28V565L445 301Q421 266 386 266Q354 266 329 301L147 565V28Q147
15 136 8T110 0Q73 0 73 28Z" />
<glyph unicode="N" glyph-name="N" horiz-adv-x="718" d="M73 28V673Q73 700 103 700Q125 700 146 681L571 307V673Q571 700 609 700Q624 700 634 693T645 673V28Q645 15 634 8T608 0Q571 0 571 28V210L147 583V28Q147 15 136 8T110 0Q73 0 73 28Z" />
<glyph unicode="O" glyph-name="O" horiz-adv-x="668" d="M48 348Q48 501 133 603T337 705T536 601T618 351Q618 191 539 94T337 -5Q219 -5 134 94T48 348ZM122 347Q122 233 185 151T337 69Q424 69 484 151T544 349Q544 459 484 545T337 631Q249 631 186 544T122 347Z" />
<glyph unicode="P" glyph-name="P" horiz-adv-x="633" d="M73 27V672Q73 700 110 700Q145 700 145 657Q248 701 344 701Q480 701 544 636T608 472Q608 360 521 311T268 262Q248 262 208 265T147 268V27Q147 14 137 7T111 0Q73 0 73 27ZM147 354Q188 341 312 341Q412
341 473 376T534 483Q534 544 485 585T334 627Q246 627 147 574V354Z" />
<glyph unicode="Q" glyph-name="Q" horiz-adv-x="676" d="M47 348Q47 501 132 603T336 705T535 601T617 351Q617 210 554 117T389 1Q397 -41 419 -63T471 -86Q496 -86 512 -83T545 -60T561 -6Q561 8 572 17T599 26Q614 26 624 18T635 -7Q634 -85 588 -122T471
-160Q406 -160 368 -119T317 -4Q205 5 126 102T47 348ZM121 347Q121 233 184 151T336 69Q423 69 483 151T543 349Q543 459 483 545T336 631Q248 631 185 544T121 347Z" />
<glyph unicode="R" glyph-name="R" horiz-adv-x="677" d="M73 27V672Q73 700 110 700Q145 700 145 657Q248 701 344 701Q480 701 544 636T608 472Q608 332 463 286L630 45Q636 34 636 26Q636 14 627 7T602 0Q571 0 553 25L387 269Q337 262 268 262Q248 262 208
265T147 268V27Q147 14 137 7T111 0Q73 0 73 27ZM147 354Q188 341 312 341Q412 341 473 376T534 483Q534 544 485 585T334 627Q246 627 147 574V354Z" />
<glyph unicode="S" glyph-name="S" horiz-adv-x="625" d="M43 127Q43 142 54 158T81 174Q86 174 88 172Q123 135 193 105T326 74Q505 74 505 193Q505 233 481 258T417 297T330 319T234 340T147 372T83 430T58 525Q58 609 132 654T309 700Q389 700 459 674T563
599Q564 597 564 594Q564 582 548 570T518 557Q516 557 506 562Q427 627 310 627Q239 627 185 601T131 520Q131 483 155 459T219 424T307 404T403 382T490 349T554 287T579 187Q579 1 333 1Q253 1 176 29T50 108Q43 115 43 127Z" />
<glyph unicode="T" glyph-name="T" horiz-adv-x="569" d="M10 664Q10 679 17 689T37 700H531Q544 700 551 689T559 663Q559 626 531 626H315V28Q315 15 304 8T278 0Q241 0 241 28V626H37Q10 626 10 664Z" />
<glyph unicode="U" glyph-name="U" horiz-adv-x="700" d="M68 214V672Q69 685 79 692T104 700Q141 700 141 672V223Q141 176 180 140T265 89T346 74Q388 74 435 89T520 139T559 223V672Q559 700 596 700Q610 700 620 693T632 672V214Q632 154 588 104T481 27T354
0Q251 0 160 62T68 214Z" />
<glyph unicode="V" glyph-name="V" horiz-adv-x="615" d="M23 663Q23 678 38 689T68 700Q84 700 92 685L307 120L523 685Q531 700 547 700Q562 700 577 689T592 663Q592 659 590 653L353 35Q346 20 332 10T307 0T282 9T260 35L25 653Q23 659 23 663Z" />
<glyph unicode="W" glyph-name="W" horiz-adv-x="835" d="M33 663Q33 678 48 689T78 700Q98 700 102 685L257 120L376 646Q381 667 391 681T415 695Q438 695 449 647L577 120L733 685Q738 700 757 700Q772 700 787 689T802 663Q802 659 800 653L623 35Q616 20
602 10T577 0T552 9T530 35L414 461L303 35Q296 20 282 10T257 0T232 9T210 35L35 653Q33 659 33 663Z" />
<glyph unicode="X" glyph-name="X" horiz-adv-x="643" d="M25 38Q25 45 31 51L273 348L29 647Q25 650 25 660Q25 676 41 688T72 700Q79 700 93 688L321 407L550 688Q564 700 571 700Q586 700 602 688T618 660Q618 650 614 647L370 348L612 51Q618 45 618 38Q618
25 602 13T573 0T548 11L321 288L95 11Q83 0 70 0T41 12T25 38Z" />
<glyph unicode="Y" glyph-name="Y" horiz-adv-x="658" d="M47 444V672Q48 685 58 692T83 700Q120 700 120 672V453Q120 406 159 370T244 319T325 304Q367 304 414 319T499 369T538 453V672Q538 700 575 700Q589 700 599 693T611 672V444Q611 362 535 303T365 232V28Q365
15 354 8T328 0Q291 0 291 28V233Q195 246 121 304T47 444Z" />
<glyph unicode="Z" glyph-name="Z" horiz-adv-x="641" d="M20 33Q20 43 27 51L477 626H68Q41 626 41 664Q41 679 48 689T68 700H549Q603 700 603 672Q603 661 592 647L143 75H589Q602 75 609 64T617 38Q617 1 589 1H74Q50 1 35 10T20 33Z" />
<glyph unicode="[" glyph-name="bracketleft" horiz-adv-x="301" d="M71 -142V723Q71 739 80 744T113 750H241Q254 750 261 739T269 713Q269 676 241 676H145V-97H241Q254 -97 261 -108T269 -134Q269 -171 241 -171H106Q94 -171 83 -163T71 -142Z" />
<glyph unicode="\" glyph-name="backslash" horiz-adv-x="746" d="M30 672Q30 684 44 696T74 708Q86 708 94 699L700 -48Q716 -68 716 -85Q716 -100 704 -110T677 -120Q663 -120 654 -110L41 647Q30 661 30 672Z" />
<glyph unicode="]" glyph-name="bracketright" horiz-adv-x="301" d="M32 -134Q32 -119 39 -108T60 -97H156V676H60Q32 676 32 713Q32 728 39 739T60 750H188Q212 750 221 745T230 723V-142Q230 -154 219 -162T195 -171H60Q32 -171 32 -134Z" />
<glyph unicode="^" glyph-name="asciicircum" horiz-adv-x="833" d="M118 416Q118 422 122 427L287 665Q312 700 334 700T380 665L547 427Q551 422 551 416Q551 403 534 392T504 380T480 395L334 590L189 395Q178 380 165 380Q151 380 135 391T118 416Z" />
<glyph unicode="_" glyph-name="underscore" horiz-adv-x="694" d="M67 -164Q67 -149 74 -139T94 -128H599Q612 -128 619 -139T627 -165Q627 -202 599 -202H94Q67 -202 67 -164Z" />
<glyph unicode="`" glyph-name="grave" horiz-adv-x="304" d="M40 691Q40 711 58 730T98 750Q141 750 176 685T211 574Q211 547 194 547Q183 547 158 578T112 619Q108 621 96 626T78 633T64 642T51 654T44 669T40 691Z" />
<glyph unicode="a" glyph-name="a" horiz-adv-x="652" d="M38 182Q38 316 143 413T381 510Q472 510 536 441T600 284L599 22Q599 9 587 2T559 -6Q526 -6 526 22V191Q445 86 372 39T220 -8Q148 -8 93 50T38 182ZM110 180Q110 123 150 94T235 64Q287 64 354 115T465
230T510 330Q510 360 493 383T450 418T403 434T368 440Q270 440 190 362T110 180Z" />
<glyph unicode="b" glyph-name="b" horiz-adv-x="660" d="M60 28V724Q60 750 98 750Q134 750 134 724V451Q196 510 279 510Q412 510 517 413T622 182Q622 109 567 51T440 -8Q362 -8 289 39T134 191V28Q134 15 123 8T97 0Q60 0 60 28ZM150 330Q150 294 194 231T306
116T425 64Q470 64 510 93T550 180Q550 283 470 361T292 440Q278 440 257 435T211 418T168 384T150 330Z" />
<glyph unicode="c" glyph-name="c" horiz-adv-x="555" d="M38 248Q38 334 84 396T195 487T331 515Q421 515 498 453Q506 446 506 435Q506 419 493 406T466 392Q456 392 449 399Q401 441 329 441Q227 441 170 379T112 247Q112 176 178 118T330 59Q418 59 473 122Q484
133 492 133Q507 133 521 118T535 89Q535 80 528 73Q451 -15 335 -15Q212 -15 125 62T38 248Z" />
<glyph unicode="d" glyph-name="d" horiz-adv-x="660" d="M38 182Q38 316 143 413T381 510Q464 510 526 451V724Q526 750 562 750Q600 750 600 724V28Q600 0 563 0Q548 0 537 7T526 28V191Q445 86 372 39T220 -8Q148 -8 93 50T38 182ZM110 180Q110 123 150 94T235
64Q287 64 354 115T465 230T510 330Q510 360 493 383T450 418T403 434T368 440Q270 440 190 362T110 180Z" />
<glyph unicode="e" glyph-name="e" horiz-adv-x="596" d="M38 264Q38 328 66 378T140 457T239 500T347 515Q445 515 499 473T553 368Q553 301 490 254T311 207Q207 207 113 237Q124 163 182 113T325 63Q370 63 418 77T495 117Q499 125 511 125Q525 125 541 113T557
87Q532 36 460 13T319 -11Q196 -11 117 70T38 264ZM117 314Q192 281 303 281Q390 281 435 308T480 370Q480 400 443 420T331 441Q251 441 198 406T117 314Z" />
<glyph unicode="f" glyph-name="f" horiz-adv-x="368" d="M30 438Q30 475 58 475H92V537Q92 750 251 750Q320 750 367 708T415 587Q415 571 405 563T379 554Q363 554 352 563T341 586Q341 636 314 656T251 676Q166 676 166 564V475H326Q353 475 353 437Q353 422
346 412T326 401H166V28Q166 1 128 1Q113 1 103 8T92 28V401H58Q45 401 38 412T30 438Z" />
<glyph unicode="g" glyph-name="g" horiz-adv-x="660" d="M38 182Q38 316 143 413T381 510Q464 510 526 451V474Q526 501 564 501Q579 501 589 494T600 474V-5Q600 -122 524 -188T347 -255Q267 -255 213 -227T158 -134Q158 -118 168 -110T193 -101Q209 -101 220
-110T232 -133Q232 -150 241 -160T272 -175T308 -180T352 -181Q423 -181 474 -138T526 -12V191Q445 86 372 39T220 -8Q148 -8 93 50T38 182ZM110 180Q110 123 150 94T235 64Q287 64 354 115T465 230T510 330Q510 360 493 383T450 418T403 434T368 440Q270 440 190
362T110 180Z" />
<glyph unicode="h" glyph-name="h" horiz-adv-x="673" d="M60 26V724Q60 737 70 744T96 751Q134 751 134 724V392Q183 444 254 474T399 504Q494 504 557 449T620 300Q620 291 620 209T619 28Q619 15 608 8T582 0Q545 0 545 28V291Q545 340 518 373T457 419T390
431Q316 431 240 385T134 267V26Q134 -1 96 -1Q81 -1 71 6T60 26Z" />
<glyph unicode="i" glyph-name="i" horiz-adv-x="194" d="M60 28V473Q60 500 98 500Q113 500 123 493T134 473V28Q134 15 123 8T97 0Q60 0 60 28ZM60 628V646Q60 673 98 673Q113 673 123 666T134 646V628Q134 615 123 608T97 600Q60 600 60 628Z" />
<glyph unicode="j" glyph-name="j" horiz-adv-x="194" d="M-189 -86Q-189 -70 -179 -62T-153 -53Q-137 -53 -126 -62T-115 -85Q-115 -135 -88 -155T-25 -175Q60 -175 60 -63V473Q60 500 98 500Q113 500 123 493T134 473V-36Q134 -249 -25 -249Q-94 -249 -141 -207T-189
-86ZM57 631V649Q57 676 95 676Q110 676 120 669T131 649V631Q131 618 120 611T94 603Q57 603 57 631Z" />
<glyph unicode="k" glyph-name="k" horiz-adv-x="609" d="M60 28V723Q60 750 98 750Q113 750 123 743T134 723V296L477 493Q488 500 498 500Q513 500 522 486T532 455Q532 440 524 435L299 306L608 51Q612 44 612 37Q612 20 592 8Q579 0 566 0Q552 0 544 12L230
266L134 211V28Q134 15 123 8T97 0Q60 0 60 28Z" />
<glyph unicode="l" glyph-name="l" horiz-adv-x="194" d="M60 28V723Q60 750 98 750Q113 750 123 743T134 723V28Q134 15 123 8T97 0Q60 0 60 28Z" />
<glyph unicode="m" glyph-name="m" horiz-adv-x="910" d="M59 28V471Q59 498 97 498Q112 498 122 491T133 471V418Q165 456 211 483T302 510Q425 510 477 421Q508 464 556 487T655 510Q748 510 802 457T856 310Q856 301 856 212T855 24Q855 11 844 4T819 -4Q782
-4 782 24V301Q782 436 659 436Q641 436 623 433T583 419T544 395T516 355T505 299Q505 260 505 200T504 24Q504 11 493 4T466 -4Q431 -4 431 24V301Q431 374 396 405T306 436Q253 436 204 396T133 303V28Q133 15 122 8T96 0Q59 0 59 28Z" />
<glyph unicode="n" glyph-name="n" horiz-adv-x="673" d="M60 26V473Q60 486 70 493T96 500Q134 500 134 473V394Q184 448 255 479T399 511Q493 511 556 453T620 300Q620 291 620 209T619 28Q619 15 608 8T582 0Q545 0 545 28V291Q545 362 495 400T390 438Q317
438 241 390T134 267V26Q134 -1 96 -1Q81 -1 71 6T60 26Z" />
<glyph unicode="o" glyph-name="o" horiz-adv-x="636" d="M38 248Q38 334 83 396T193 487T329 515Q429 515 513 440T598 249Q598 140 523 63T327 -15Q208 -15 123 62T38 248ZM112 247Q112 176 177 118T328 59Q409 59 466 118T524 249Q524 319 469 380T327 441Q225
441 169 379T112 247Z" />
<glyph unicode="p" glyph-name="p" horiz-adv-x="657" d="M60 -223V472Q60 485 71 492T97 500Q134 500 134 472V363Q229 508 415 508Q500 508 559 452T619 319Q619 230 570 156T443 40T278 -1Q195 -1 134 54V-223Q134 -250 96 -250Q81 -250 71 -243T60 -223ZM133
197Q133 136 181 105T278 74Q336 74 396 102T498 185T541 307Q541 375 499 405T396 435Q340 435 278 398T174 304T133 197Z" />
<glyph unicode="q" glyph-name="q" horiz-adv-x="657" d="M38 319Q38 395 97 451T242 508Q428 508 523 363V472Q523 500 560 500Q575 500 586 493T597 472V-223Q597 -236 587 -243T561 -250Q523 -250 523 -223V54Q462 -1 379 -1Q293 -1 215 40T87 155T38 319ZM116
307Q116 241 158 186T261 102T379 74Q427 74 475 105T524 197Q524 247 483 303T380 397T261 435Q201 435 159 405T116 307Z" />
<glyph unicode="r" glyph-name="r" horiz-adv-x="489" d="M59 28V471Q59 498 97 498Q112 498 122 491T133 471V346Q171 428 217 470T341 512Q395 512 450 498Q479 484 479 460Q479 443 472 436T449 427Q398 439 366 439Q292 439 231 366T133 176V28Q133 15 122
8T96 0Q59 0 59 28Z" />
<glyph unicode="s" glyph-name="s" horiz-adv-x="579" d="M39 95Q39 108 50 123T77 142Q84 142 84 140Q116 105 176 86T270 63T335 60Q465 60 465 139Q465 166 446 182T393 205T325 213T251 216T190 222Q133 233 89 268T45 352Q45 428 121 468T290 509Q352 509
423 488T529 421Q530 419 530 416Q530 403 518 386T495 368Q485 368 475 384Q427 435 284 435Q225 435 172 415T119 356Q119 323 165 307T263 290Q300 290 325 289T386 284T446 269T493 242T527 198T539 133Q539 82 508 48T436 0T350 -14Q139 -14 46 76Q39 83 39
95Z" />
<glyph unicode="t" glyph-name="t" horiz-adv-x="428" d="M27 463Q27 478 34 489T55 500H89V623Q89 636 99 643T125 650Q163 650 163 623V500H323Q336 500 343 490T350 464Q350 426 323 426H163V187Q163 75 248 75Q284 75 310 95T337 165Q337 179 348 188T376
197Q391 197 401 189T411 164Q410 85 364 43T248 1Q89 1 89 214V426H55Q27 426 27 463Z" />
<glyph unicode="u" glyph-name="u" horiz-adv-x="670" d="M53 204Q53 213 53 293T54 472Q54 485 65 492T91 500Q128 500 128 472V213Q128 142 178 103T283 63Q351 63 428 112T536 236V473Q536 500 574 500Q589 500 599 493T610 473V27Q610 14 600 7T574 0Q536
0 536 27V109Q486 54 417 22T274 -10Q180 -10 117 50T53 204Z" />
<glyph unicode="v" glyph-name="v" horiz-adv-x="589" d="M20 463Q20 478 35 489T65 500Q81 500 89 485L294 120L500 485Q508 500 524 500Q539 500 554 489T569 463Q569 456 567 453L335 35Q318 0 294 0Q271 0 254 35L22 453Q20 456 20 463Z" />
<glyph unicode="w" glyph-name="w" horiz-adv-x="839" d="M21 464Q21 478 37 489T68 500Q84 500 92 485L257 120L392 450Q394 454 398 465T404 480T409 490T418 498T429 500T440 496T450 485T457 472T463 459T466 450L606 120L752 485Q760 500 776 500Q791 500
806 489T822 464Q822 459 819 453L647 35Q641 19 629 10T606 0Q583 0 566 35L430 331L298 35Q291 20 280 10T257 0Q233 0 216 35L24 453Q21 459 21 464Z" />
<glyph unicode="x" glyph-name="x" horiz-adv-x="613" d="M24 35Q24 42 30 48L252 247L30 447Q26 450 26 460Q26 474 42 487T73 500Q80 500 94 488L306 296L519 488Q533 500 540 500Q555 500 571 488T587 460Q587 450 583 447L361 247L583 48Q589 42 589 35Q589
22 573 10T544 -3Q530 -3 519 8L306 198L94 8Q82 -3 69 -3T40 9T24 35Z" />
<glyph unicode="y" glyph-name="y" horiz-adv-x="668" d="M54 204V474Q54 487 64 494T89 502Q126 502 126 474V213Q126 176 146 147T196 103T256 81T311 73Q382 73 445 117T534 234V474Q534 501 572 501Q587 501 597 494T608 474V-5Q608 -64 582 -113T513 -193T422
-239T325 -255Q243 -255 165 -217T85 -115Q85 -99 95 -91T121 -82Q137 -82 149 -91T161 -114Q161 -146 218 -163T330 -181Q375 -181 419 -165T499 -108T534 -12V104Q443 0 302 0Q204 0 129 56T54 204Z" />
<glyph unicode="z" glyph-name="z" horiz-adv-x="606" d="M20 34Q20 41 24 48L445 426H70Q42 426 42 463Q42 478 49 489T70 500H538Q576 500 576 469Q576 450 560 429L156 74H548Q561 74 568 64T575 38Q575 0 548 0H61Q48 0 39 5Q20 17 20 34Z" />
<glyph unicode="{" glyph-name="braceleft" horiz-adv-x="324" d="M49 -15Q49 18 65 48T101 97T137 143T154 195Q154 222 145 230T115 239Q49 239 49 278Q49 315 106 315Q123 315 131 316T146 328T154 359Q154 385 138 411T102 456T66 506T49 569Q49 630 116 670T253
712Q269 712 277 702T286 676Q286 660 277 648T254 636Q237 636 217 633T174 621T136 598T121 563Q121 536 137 510T173 465T209 416T226 353Q226 304 201 277Q226 249 226 201Q226 167 210 137T174 88T138 43T121 -9Q121 -29 136 -44T173 -67T216 -78T254 -82Q268
-82 277 -94T286 -122Q286 -137 278 -147T253 -158Q183 -157 116 -117T49 -15Z" />
<glyph unicode="|" glyph-name="bar" horiz-adv-x="216" d="M71 -142V723Q71 750 109 750Q124 750 134 743T145 723V-142Q145 -155 134 -162T108 -170Q71 -170 71 -142Z" />
<glyph unicode="}" glyph-name="braceright" horiz-adv-x="325" d="M38 -122Q38 -106 47 -94T70 -82Q87 -82 107 -79T150 -67T188 -44T203 -9Q203 17 187 43T151 88T115 137T98 201Q98 249 123 277Q98 304 98 353Q98 386 114 416T150 465T186 510T203 563Q203
583 188 598T151 621T108 632T70 636Q56 636 47 648T38 676Q38 691 46 701T71 712Q141 711 208 671T275 569Q275 536 259 506T223 457T187 411T170 359Q170 338 177 328T193 317T218 315Q275 315 275 278Q275 239 209 239Q189 239 180 231T170 195Q170 169 186
143T222 98T258 48T275 -15Q275 -76 208 -116T71 -158Q55 -158 47 -148T38 -122Z" />
<glyph unicode="~" glyph-name="asciitilde" horiz-adv-x="717" d="M54 241Q55 301 111 343T237 385Q270 385 299 374T343 353T385 320Q436 280 477 280Q520 280 555 302T590 353Q590 367 602 376T630 385Q645 385 655 377T666 352Q665 292 609 250T483 208Q430
208 387 232Q368 242 342 264T292 300T243 313Q200 313 165 291T130 240Q130 226 118 217T90 208Q75 208 65 216T54 241Z" />
<glyph unicode="&#xa1;" glyph-name="exclamdown" horiz-adv-x="247" d="M58 671V699Q58 722 76 735T125 749Q151 749 171 736T191 699V671Q191 648 172 636T126 623Q95 623 77 636T58 671ZM87 27V482Q87 510 124 510Q139 510 150 503T161 482V27Q161 14 151 7T125
0Q87 0 87 27Z" />
<glyph unicode="&#xa2;" glyph-name="cent" horiz-adv-x="566" d="M34 260Q34 362 94 428T245 516V707Q245 734 283 734Q298 734 308 727T319 707V527H327Q417 527 494 465Q502 458 502 447Q502 431 489 418T462 404Q452 404 445 411Q397 453 325 453H319V71H326Q414
71 469 134Q480 145 488 145Q503 145 517 130T531 101Q531 92 524 85Q447 -3 331 -3H319V-158Q319 -171 308 -178T282 -186Q245 -186 245 -158V8Q152 33 93 103T34 260ZM108 259Q108 207 146 158T245 86V440Q179 418 144 366T108 259Z" />
<glyph unicode="&#xa3;" glyph-name="sterling" horiz-adv-x="507" d="M49 41Q49 72 70 97T124 134V300H90Q77 300 70 311T62 337Q62 374 90 374H124V506Q124 719 283 719Q352 719 399 677T447 556Q447 540 437 532T411 523Q395 523 384 532T373 555Q373 605 346
625T283 645Q198 645 198 533V374H358Q385 374 385 336Q385 321 378 311T358 300H198V137Q225 131 270 96Q307 68 335 68Q364 68 384 83T404 119Q404 129 412 135T432 141Q457 141 457 98Q456 56 421 27T339 -2Q302 -2 272 14Q259 21 240 37T205 62T171 71Q142
71 122 56T102 20Q102 10 94 4T74 -2Q49 -2 49 41Z" />
<glyph unicode="&#xa4;" glyph-name="currency" horiz-adv-x="670" d="M53 41Q53 48 59 54L128 116Q82 178 82 250Q82 330 128 391L59 453Q55 456 55 466Q55 480 71 493T102 506Q109 506 123 494L181 441Q253 490 338 490Q414 490 482 435L548 494Q562 506 569
506Q584 506 600 494T616 466Q616 456 612 453L531 381Q572 320 572 250Q572 181 536 122L612 54Q618 48 618 41Q618 28 602 16T573 3Q559 3 548 14L489 67Q424 13 334 13Q247 13 180 64L123 14Q111 3 98 3T69 15T53 41ZM155 247Q155 182 205 134T336 86Q409 86
454 137T499 249Q499 315 455 366T336 418Q274 418 231 389T172 322T155 247Z" />
<glyph unicode="&#xa5;" glyph-name="yen" horiz-adv-x="686" d="M61 514V672Q62 685 72 692T97 700Q134 700 134 672V523Q134 476 173 440T258 389T339 374Q381 374 428 389T513 439T552 523V672Q552 700 589 700Q603 700 613 693T625 672V514Q625 432 549 373T379
302V260H570Q583 260 590 249T598 223Q598 186 570 186H379V152H570Q583 152 590 141T598 115Q598 78 570 78H379V28Q379 15 368 8T342 0Q305 0 305 28V78H115Q88 78 88 116Q88 131 95 141T115 152H305V186H115Q88 186 88 224Q88 239 95 249T115 260H305V303Q209
316 135 374T61 514Z" />
<glyph unicode="&#xa6;" glyph-name="brokenbar" horiz-adv-x="218" d="M72 -142V153Q72 180 110 180Q125 180 135 173T146 153V-142Q146 -155 135 -162T109 -170Q72 -170 72 -142ZM72 427V722Q72 735 83 742T109 750Q146 750 146 722V427Q146 400 108 400Q93
400 83 407T72 427Z" />
<glyph unicode="&#xa7;" glyph-name="section" horiz-adv-x="677" d="M36 425Q36 546 106 620T303 695Q394 695 475 666T590 586Q592 582 592 579Q592 565 578 548T552 531Q547 531 545 533Q470 610 385 610Q331 610 307 576T282 486Q282 461 308 436T374 389T460
336T546 267T612 172T639 45Q639 -52 563 -124T384 -196Q288 -196 207 -161T89 -64Q89 -49 100 -33T127 -16Q132 -16 134 -18Q158 -50 198 -78T283 -107Q327 -107 353 -62T379 29Q379 65 354 98T290 157T208 212T125 271T62 340T36 425ZM103 448Q103 405 129 368T193
305T277 250T361 193T426 123T452 32Q452 2 438 -40T392 -119Q471 -119 519 -63T567 54Q567 100 547 139T496 207T426 260T348 310T278 360T226 418T206 491Q206 558 249 620Q187 620 145 567T103 448Z" />
<glyph unicode="&#xa8;" glyph-name="dieresis" horiz-adv-x="833" d="M144 620V648Q144 670 162 683T212 696Q239 696 258 684T277 648V620Q277 597 257 584T211 570Q180 570 162 583T144 620ZM394 620V648Q394 670 412 683T462 696Q489 696 508 684T527 648V620Q527
597 507 584T461 570Q430 570 412 583T394 620Z" />
<glyph unicode="&#xa9;" glyph-name="copyright" horiz-adv-x="776" d="M52 420Q52 483 73 537T128 629T208 695T303 736T402 750Q477 750 550 710T674 592T724 420Q724 289 634 192T398 94Q257 94 155 192T52 420ZM125 416Q125 308 205 238T400 167Q504 167 577
246T651 419Q651 462 634 506T587 590T507 653T400 678Q332 678 277 652T190 586T142 502T125 416ZM198 413Q198 505 264 566T421 627Q475 627 521 590Q526 585 526 579Q526 567 518 545T502 523T491 527Q463 553 419 553Q346 553 309 508T272 414Q272 362 307
326T420 289Q472 289 506 327Q513 334 517 334Q526 334 534 311T543 277Q543 272 539 268Q492 215 423 215Q318 215 258 270T198 413Z" />
<glyph unicode="&#xaa;" glyph-name="ordfeminine" horiz-adv-x="453" d="M45 414Q45 494 108 552T251 610Q307 610 350 569T393 475L392 318Q392 301 357 301Q318 301 318 318V388Q294 344 255 321T171 298Q118 298 82 329T45 414ZM121 433Q121 406 134 388T170
370Q216 370 257 418T299 502Q299 519 277 530T237 541Q198 541 160 503T121 433Z" />
<glyph unicode="&#xab;" glyph-name="guillemotleft" horiz-adv-x="799" d="M29 311Q29 336 62 358L380 605Q386 607 390 607Q405 607 416 592T427 562Q427 546 412 538L127 312L412 77Q427 69 427 53Q427 38 416 23T390 8Q386 8 380 10L62 265Q29 287 29 311ZM349
311Q349 336 382 358L700 605Q706 607 710 607Q725 607 736 592T747 562Q747 546 732 538L447 312L732 77Q747 69 747 53Q747 38 736 23T710 8Q706 8 700 10L382 265Q349 287 349 311Z" />
<glyph unicode="&#xac;" glyph-name="logicalnot" horiz-adv-x="698" d="M68 336Q68 351 75 361T95 372H600Q610 372 620 363T630 343V198Q630 185 619 178T593 170Q556 170 556 198V298H95Q68 298 68 336Z" />
<glyph unicode="&#xad;" glyph-name="uni00AD" horiz-adv-x="470" d="M60 266Q60 281 67 291T87 302H382Q395 302 402 291T410 265Q410 228 382 228H87Q60 228 60 266Z" />
<glyph unicode="&#xae;" glyph-name="registered" horiz-adv-x="776" d="M52 423Q52 486 73 540T128 632T208 698T303 739T402 753Q477 753 550 713T674 595T724 423Q724 292 634 195T398 97Q257 97 155 195T52 423ZM125 419Q125 311 205 241T400 170Q504 170
577 249T651 422Q651 465 634 509T587 593T507 656T400 681Q332 681 277 655T190 589T142 505T125 419ZM236 273V587Q236 592 251 597T282 602Q308 602 309 589Q365 611 406 611Q472 611 508 575T544 489Q544 426 479 397L558 282Q560 280 560 275Q560 260 501
260Q486 260 477 273Q456 303 433 337T405 378Q394 377 369 377Q360 377 340 378T309 380V273Q309 267 296 264T273 260Q262 260 249 263T236 273ZM309 463Q330 456 390 456Q430 456 450 465T470 498Q470 534 400 534Q359 534 309 510V463Z" />
<glyph unicode="&#xb0;" glyph-name="degree" horiz-adv-x="422" d="M43 541Q43 616 96 658T218 701Q278 701 328 656T379 541Q379 476 334 430T216 383Q145 383 94 429T43 541ZM117 570T117 540T147 484T215 457Q250 457 277 483T305 541Q305 571 279 599T215
627Q171 627 144 599Z" />
<glyph unicode="&#xb1;" glyph-name="plusminus" horiz-adv-x="472" d="M61 36Q61 51 68 61T88 72H383Q396 72 403 61T411 35Q411 -2 383 -2H88Q61 -2 61 36ZM61 336Q61 351 68 361T88 372H199V482Q199 495 210 502T236 510Q273 510 273 482V372H383Q396 372 403
361T411 335Q411 298 383 298H273V187Q273 160 235 160Q220 160 210 167T199 187V298H88Q61 298 61 336Z" />
<glyph unicode="&#xb2;" glyph-name="uni00B2" horiz-adv-x="406" d="M47 316Q47 353 70 387T125 449T190 500T246 550T269 598Q269 623 252 636T210 649Q187 649 170 638T153 605Q153 585 128 585Q110 585 95 598T79 636Q79 674 118 697T197 720Q342 720 342
594Q342 555 320 524T269 473T205 427T152 374H332Q339 374 343 361T348 337Q348 325 344 313T332 300H74Q47 300 47 316Z" />
<glyph unicode="&#xb3;" glyph-name="uni00B3" horiz-adv-x="356" d="M54 385Q54 402 66 413T91 424Q110 424 110 405Q110 388 124 379T160 370Q197 370 218 389T239 433Q239 457 220 475T165 493Q150 493 142 506T134 532Q134 546 143 561T165 577Q215 577 215
624Q215 644 200 655T165 667T132 657T118 626Q118 608 86 608T54 636Q54 675 92 702T168 730Q214 730 251 699T289 620Q289 593 274 568T239 537Q311 506 311 432Q311 380 272 341T168 301Q129 301 92 323T54 385Z" />
<glyph unicode="&#xb4;" glyph-name="acute" horiz-adv-x="248" d="M40 574Q40 620 75 685T153 750Q175 750 193 731T211 691Q211 679 208 670T200 655T187 643T173 634T156 626T139 619Q119 610 94 579T57 547Q40 547 40 574Z" />
<glyph unicode="&#xb5;" glyph-name="uni00B5" horiz-adv-x="552" d="M73 -112V473Q73 500 111 500Q126 500 136 493T147 473V75Q159 73 186 73Q260 73 321 146T419 336V472Q419 485 430 492T456 500Q493 500 493 472V27Q493 0 455 0Q440 0 430 7T419 27V166Q381
84 335 42T211 0Q170 0 147 4V-112Q147 -125 136 -132T110 -140Q73 -140 73 -112Z" />
<glyph unicode="&#xb6;" glyph-name="paragraph" horiz-adv-x="668" d="M36 472Q36 700 284 700H607Q620 700 627 689T635 663Q635 626 607 626H511V-132Q511 -145 500 -152T474 -160Q437 -160 437 -132V626H321V-133Q321 -160 283 -160Q268 -160 258 -153T247
-133V268Q150 268 93 322T36 472Z" />
<glyph unicode="&#xb7;" glyph-name="middot" horiz-adv-x="253" d="M60 290V318Q60 340 78 353T128 366Q155 366 174 354T193 318V290Q193 267 173 254T127 240Q96 240 78 253T60 290Z" />
<glyph unicode="&#xb8;" glyph-name="cedilla" horiz-adv-x="300" d="M38 -149Q38 -135 48 -127T72 -119Q92 -119 94 -134Q97 -171 139 -171Q158 -171 172 -162T187 -137Q187 -118 179 -106T153 -88T125 -81T95 -78V-11Q98 0 133 0Q169 0 169 -11V-36Q197 -36
228 -60T259 -133Q259 -177 226 -201T153 -225Q94 -225 66 -202T38 -149Z" />
<glyph unicode="&#xb9;" glyph-name="uni00B9" horiz-adv-x="341" d="M38 582Q38 596 47 605L167 713Q176 722 191 722Q207 722 219 713T232 689V375H282Q289 375 294 362T299 338Q299 326 294 314T282 301H108Q101 301 97 314T92 339Q92 349 96 362T108 375H158V614L78
545Q72 541 69 541Q58 541 48 554T38 582Z" />
<glyph unicode="&#xba;" glyph-name="ordmasculine" horiz-adv-x="422" d="M43 541Q43 616 96 658T218 701Q278 701 328 656T379 541Q379 476 334 430T216 383Q145 383 94 429T43 541ZM117 570T117 540T147 484T215 457Q250 457 277 483T305 541Q305 571 279 599T215
627Q171 627 144 599Z" />
<glyph unicode="&#xbb;" glyph-name="guillemotright" horiz-adv-x="799" d="M52 53Q52 69 67 77L352 312L67 538Q52 546 52 562Q52 577 63 592T89 607Q93 607 99 605L417 358Q450 336 450 311Q450 287 417 265L99 10Q93 8 89 8Q74 8 63 23T52 53ZM372 53Q372
69 387 77L672 312L387 538Q372 546 372 562Q372 577 383 592T409 607Q413 607 419 605L737 358Q770 336 770 311Q770 287 737 265L419 10Q413 8 409 8Q394 8 383 23T372 53Z" />
<glyph unicode="&#xbc;" glyph-name="onequarter" horiz-adv-x="935" d="M35 582Q35 596 44 605L164 713Q173 722 188 722Q204 722 216 713T229 689V375H279Q286 375 291 362T296 338Q296 326 291 314T279 301H105Q98 301 94 314T89 339Q89 349 93 362T105 375H155V614L75
545Q69 541 66 541Q55 541 45 554T35 582ZM196 -5Q196 12 212 32L758 779Q766 788 778 788Q794 788 808 776T822 752Q822 748 802 719L258 -30Q251 -40 235 -40Q220 -40 208 -30T196 -5ZM566 123Q566 139 573 147L778 402Q787 414 807 414Q825 414 839 404T853
378V160H881Q897 157 897 120Q897 86 881 86H853V7Q853 -9 822 -9Q806 -9 793 -4T779 7V86H592Q579 86 573 97T566 123ZM667 160H779V282L667 160Z" />
<glyph unicode="&#xbd;" glyph-name="onehalf" horiz-adv-x="999" d="M35 582Q35 596 44 605L164 713Q173 722 188 722Q204 722 216 713T229 689V375H279Q286 375 291 362T296 338Q296 326 291 314T279 301H105Q98 301 94 314T89 339Q89 349 93 362T105 375H155V614L75
545Q69 541 66 541Q55 541 45 554T35 582ZM196 -5Q196 12 212 32L758 779Q766 788 778 788Q794 788 808 776T822 752Q822 741 811 727L258 -30Q249 -40 235 -40Q220 -40 208 -30T196 -5ZM655 16Q655 53 678 87T733 149T798 200T854 250T877 298Q877 323 860 336T818
349Q795 349 778 338T761 305Q761 285 736 285Q718 285 703 298T687 336Q687 374 726 397T805 420Q950 420 950 294Q950 255 928 224T877 173T813 127T760 74H940Q947 74 951 61T956 37Q956 25 952 13T940 0H682Q655 0 655 16Z" />
<glyph unicode="&#xbe;" glyph-name="threequarters" horiz-adv-x="950" d="M44 385Q44 402 56 413T81 424Q100 424 100 405Q100 388 114 379T150 370Q187 370 208 389T229 433Q229 457 210 475T155 493Q140 493 132 506T124 532Q124 546 133 561T155 577Q205
577 205 624Q205 644 190 655T155 667T122 657T108 626Q108 608 76 608T44 636Q44 675 82 702T158 730Q204 730 241 699T279 620Q279 593 264 568T229 537Q301 506 301 432Q301 380 262 341T158 301Q119 301 82 323T44 385ZM213 -5Q213 12 229 32L775 779Q782 788
795 788Q811 788 825 776T839 752Q839 748 819 719L275 -30Q268 -40 252 -40Q237 -40 225 -30T213 -5ZM583 123Q583 139 590 147L795 402Q804 414 824 414Q842 414 856 404T870 378V160H898Q914 157 914 120Q914 86 898 86H870V7Q870 -9 839 -9Q823 -9 810 -4T796
7V86H609Q596 86 590 97T583 123ZM684 160H796V282L684 160Z" />
<glyph unicode="&#xbf;" glyph-name="questiondown" horiz-adv-x="515" d="M47 210Q47 269 70 314T128 383T195 419T254 432V490Q254 518 291 518Q306 518 318 511T331 490V370Q297 368 263 359T196 332T141 280T120 203Q120 145 174 110T284 74Q323 74 363 91T403
141Q403 155 415 164T443 173Q458 173 468 165T479 140Q478 76 416 38T289 0Q248 0 207 13T130 51T70 117T47 210ZM222 622V650Q222 673 242 686T288 700Q319 700 337 687T355 650V622Q355 600 337 587T287 574Q260 574 241 586T222 622Z" />
<glyph unicode="&#xc0;" glyph-name="Agrave" horiz-adv-x="639" d="M36 37Q36 41 38 47L106 227H65Q38 227 38 265Q38 280 45 290T65 301H134L273 665Q281 681 295 690T320 700T345 690T366 665L505 301H570Q583 301 590 290T598 264Q598 227 570 227H534L603
47Q605 41 605 37Q605 22 590 11T560 0Q544 0 536 15L455 227H186L105 15Q97 0 81 0Q66 0 51 11T36 37ZM177 891Q177 911 195 930T235 950Q278 950 313 885T348 774Q348 747 331 747Q320 747 295 778T249 819Q245 821 233 826T215 833T201 842T188 854T181 869T177
891ZM214 301H426L320 580L214 301Z" />
<glyph unicode="&#xc1;" glyph-name="Aacute" horiz-adv-x="639" d="M36 37Q36 41 38 47L106 227H65Q38 227 38 265Q38 280 45 290T65 301H134L273 665Q281 681 295 690T320 700T345 690T366 665L505 301H570Q583 301 590 290T598 264Q598 227 570 227H534L603
47Q605 41 605 37Q605 22 590 11T560 0Q544 0 536 15L455 227H186L105 15Q97 0 81 0Q66 0 51 11T36 37ZM214 301H426L320 580L214 301ZM282 774Q282 820 317 885T395 950Q417 950 435 931T453 891Q453 879 450 870T442 855T429 843T415 834T398 826T381 819Q361
810 336 779T299 747Q282 747 282 774Z" />
<glyph unicode="&#xc2;" glyph-name="Acircumflex" horiz-adv-x="639" d="M36 37Q36 41 38 47L106 227H65Q38 227 38 265Q38 280 45 290T65 301H134L273 665Q281 681 295 690T320 700T345 690T366 665L505 301H570Q583 301 590 290T598 264Q598 227 570 227H534L603
47Q605 41 605 37Q605 22 590 11T560 0Q544 0 536 15L455 227H186L105 15Q97 0 81 0Q66 0 51 11T36 37ZM154 786Q154 792 158 797L273 915Q276 918 281 924T290 932T297 939T305 945T312 948T320 950T328 948T338 942T347 935T356 924L366 915L483 797Q487 793
487 786Q487 773 473 762T445 751Q430 751 416 765L320 850L225 765Q212 752 197 752T168 762T154 786ZM214 301H426L320 580L214 301Z" />
<glyph unicode="&#xc3;" glyph-name="Atilde" horiz-adv-x="639" d="M36 37Q36 41 38 47L106 227H65Q38 227 38 265Q38 280 45 290T65 301H134L273 665Q281 681 295 690T320 700T345 690T366 665L505 301H570Q583 301 590 290T598 264Q598 227 570 227H534L603
47Q605 41 605 37Q605 22 590 11T560 0Q544 0 536 15L455 227H186L105 15Q97 0 81 0Q66 0 51 11T36 37ZM116 798Q116 840 151 869T234 898Q257 898 277 891T308 876T337 853Q374 825 402 825Q431 825 451 840T471 876Q471 886 479 892T499 898Q524 898 524 855Q523
813 488 784T406 755Q369 755 339 771Q326 778 307 794T272 819T238 828Q209 828 189 813T169 777Q169 767 161 761T141 755Q116 755 116 798ZM214 301H426L320 580L214 301Z" />
<glyph unicode="&#xc4;" glyph-name="Adieresis" horiz-adv-x="639" d="M36 37Q36 41 38 47L106 227H65Q38 227 38 265Q38 280 45 290T65 301H134L273 665Q281 681 295 690T320 700T345 690T366 665L505 301H570Q583 301 590 290T598 264Q598 227 570 227H534L603
47Q605 41 605 37Q605 22 590 11T560 0Q544 0 536 15L455 227H186L105 15Q97 0 81 0Q66 0 51 11T36 37ZM129 820V848Q129 870 147 883T197 896Q224 896 243 884T262 848V820Q262 797 242 784T196 770Q165 770 147 783T129 820ZM214 301H426L320 580L214 301ZM379
820V848Q379 870 397 883T447 896Q474 896 493 884T512 848V820Q512 797 492 784T446 770Q415 770 397 783T379 820Z" />
<glyph unicode="&#xc5;" glyph-name="Aring" horiz-adv-x="640" d="M37 37Q37 41 39 47L107 227H66Q39 227 39 265Q39 280 46 290T66 301H135L268 650Q240 663 223 688T205 742Q205 790 240 818T318 846Q358 846 390 817T423 742Q423 682 371 653L506 301H571Q584
301 591 290T599 264Q599 227 571 227H535L604 47Q606 41 606 37Q606 22 591 11T561 0Q545 0 537 15L456 227H187L106 15Q98 0 82 0Q67 0 52 11T37 37ZM215 301H427L321 580L215 301ZM269 741Q269 727 284 715T318 702Q333 702 345 715T358 742T346 769T318 783Q295
783 282 770T269 741Z" />
<glyph unicode="&#xc6;" glyph-name="AE" horiz-adv-x="735" d="M30 37Q30 41 32 47L118 227H59Q32 227 32 265Q32 280 39 290T59 301H153L327 665Q339 686 350 694Q355 699 365 699H679Q692 699 699 688T707 662Q707 625 679 625H413V429H589Q602 429 609 418T617
392Q617 355 589 355H413V74H679Q692 74 699 63T707 37Q707 0 679 0H365Q348 0 344 12T339 51V227H202L99 15Q91 0 75 0Q60 0 45 11T30 37ZM238 301H339V508L238 301Z" />
<glyph unicode="&#xc7;" glyph-name="Ccedilla" horiz-adv-x="640" d="M45 355Q45 508 155 609T416 711Q506 711 583 649Q591 642 591 631Q591 615 578 602T551 588Q541 588 534 595Q486 637 414 637Q283 637 202 553T120 356Q120 241 200 153T415 65Q503 65 558
128Q569 139 577 139Q592 139 606 124T620 95Q620 86 613 79Q536 -9 420 -9Q388 -9 353 -4V-36Q381 -36 412 -60T443 -133Q443 -177 410 -201T337 -225Q278 -225 250 -202T222 -149Q222 -135 232 -127T256 -119Q276 -119 278 -134Q281 -171 323 -171Q342 -171 356
-162T371 -137Q371 -118 363 -106T337 -88T309 -81T279 -78V14Q169 53 107 147T45 355Z" />
<glyph unicode="&#xc8;" glyph-name="Egrave" horiz-adv-x="672" d="M73 51V650Q73 699 99 699H613Q626 699 633 688T641 662Q641 625 613 625H147V429H523Q536 429 543 418T551 392Q551 355 523 355H147V74H613Q626 74 633 63T641 37Q641 0 613 0H99Q82 0 78
12T73 51ZM203 891Q203 911 221 930T261 950Q304 950 339 885T374 774Q374 747 357 747Q346 747 321 778T275 819Q271 821 259 826T241 833T227 842T214 854T207 869T203 891Z" />
<glyph unicode="&#xc9;" glyph-name="Eacute" horiz-adv-x="672" d="M73 51V650Q73 699 99 699H613Q626 699 633 688T641 662Q641 625 613 625H147V429H523Q536 429 543 418T551 392Q551 355 523 355H147V74H613Q626 74 633 63T641 37Q641 0 613 0H99Q82 0 78
12T73 51ZM322 774Q322 820 357 885T435 950Q457 950 475 931T493 891Q493 879 490 870T482 855T469 843T455 834T438 826T421 819Q401 810 376 779T339 747Q322 747 322 774Z" />
<glyph unicode="&#xca;" glyph-name="Ecircumflex" horiz-adv-x="672" d="M73 51V650Q73 699 99 699H613Q626 699 633 688T641 662Q641 625 613 625H147V429H523Q536 429 543 418T551 392Q551 355 523 355H147V74H613Q626 74 633 63T641 37Q641 0 613 0H99Q82
0 78 12T73 51ZM190 786Q190 792 194 797L309 915Q312 918 317 924T326 932T333 939T341 945T348 948T356 950T364 948T374 942T383 935T392 924L402 915L519 797Q523 793 523 786Q523 773 509 762T481 751Q466 751 452 765L356 850L261 765Q248 752 233 752T204
762T190 786Z" />
<glyph unicode="&#xcb;" glyph-name="Edieresis" horiz-adv-x="672" d="M73 51V650Q73 699 99 699H613Q626 699 633 688T641 662Q641 625 613 625H147V429H523Q536 429 543 418T551 392Q551 355 523 355H147V74H613Q626 74 633 63T641 37Q641 0 613 0H99Q82 0
78 12T73 51ZM166 820V848Q166 870 184 883T234 896Q261 896 280 884T299 848V820Q299 797 279 784T233 770Q202 770 184 783T166 820ZM416 820V848Q416 870 434 883T484 896Q511 896 530 884T549 848V820Q549 797 529 784T483 770Q452 770 434 783T416 820Z" />
<glyph unicode="&#xcc;" glyph-name="Igrave" horiz-adv-x="220" d="M-24 891Q-24 911 -6 930T34 950Q77 950 112 885T147 774Q147 747 130 747Q119 747 94 778T48 819Q44 821 32 826T14 833T0 842T-13 854T-20 869T-24 891ZM73 28V673Q73 700 111 700Q126 700
136 693T147 673V28Q147 15 136 8T110 0Q73 0 73 28Z" />
<glyph unicode="&#xcd;" glyph-name="Iacute" horiz-adv-x="220" d="M73 28V673Q73 700 111 700Q126 700 136 693T147 673V28Q147 15 136 8T110 0Q73 0 73 28ZM81 774Q81 820 116 885T194 950Q216 950 234 931T252 891Q252 879 249 870T241 855T228 843T214 834T197
826T180 819Q160 810 135 779T98 747Q81 747 81 774Z" />
<glyph unicode="&#xce;" glyph-name="Icircumflex" horiz-adv-x="220" d="M-56 786Q-56 792 -52 797L63 915Q66 918 71 924T80 932T87 939T95 945T102 948T110 950T118 948T128 942T137 935T146 924L156 915L273 797Q277 793 277 786Q277 773 263 762T235 751Q220
751 206 765L110 850L15 765Q2 752 -13 752T-42 762T-56 786ZM73 28V673Q73 700 111 700Q126 700 136 693T147 673V28Q147 15 136 8T110 0Q73 0 73 28Z" />
<glyph unicode="&#xcf;" glyph-name="Idieresis" horiz-adv-x="220" d="M-81 820V848Q-81 870 -63 883T-13 896Q14 896 33 884T52 848V820Q52 797 32 784T-14 770Q-45 770 -63 783T-81 820ZM73 28V673Q73 700 111 700Q126 700 136 693T147 673V28Q147 15 136 8T110
0Q73 0 73 28ZM169 820V848Q169 870 187 883T237 896Q264 896 283 884T302 848V820Q302 797 282 784T236 770Q205 770 187 783T169 820Z" />
<glyph unicode="&#xd0;" glyph-name="Eth" horiz-adv-x="739" d="M17 336Q17 351 24 361T44 372H110V673Q110 700 148 700Q163 700 173 693T184 673V669Q249 711 323 711Q473 711 583 610T694 355Q694 259 651 178T521 44T319 -9Q242 -9 184 28Q184 15 173 8T147
0Q110 0 110 28V298H44Q17 298 17 336ZM184 124Q239 65 324 65Q459 65 539 153T619 356Q619 468 538 552T325 637Q260 637 184 588V372H339Q352 372 359 361T367 335Q367 298 339 298H184V124Z" />
<glyph unicode="&#xd1;" glyph-name="Ntilde" horiz-adv-x="718" d="M73 28V673Q73 700 103 700Q125 700 146 681L571 307V673Q571 700 609 700Q624 700 634 693T645 673V28Q645 15 634 8T608 0Q571 0 571 28V210L147 583V28Q147 15 136 8T110 0Q73 0 73 28ZM155
798Q155 840 190 869T273 898Q296 898 316 891T347 876T376 853Q413 825 441 825Q470 825 490 840T510 876Q510 886 518 892T538 898Q563 898 563 855Q562 813 527 784T445 755Q408 755 378 771Q365 778 346 794T311 819T277 828Q248 828 228 813T208 777Q208 767
200 761T180 755Q155 755 155 798Z" />
<glyph unicode="&#xd2;" glyph-name="Ograve" horiz-adv-x="668" d="M48 348Q48 501 133 603T337 705T536 601T618 351Q618 191 539 94T337 -5Q219 -5 134 94T48 348ZM122 347Q122 233 185 151T337 69Q424 69 484 151T544 349Q544 459 484 545T337 631Q249 631
186 544T122 347ZM191 891Q191 911 209 930T249 950Q292 950 327 885T362 774Q362 747 345 747Q334 747 309 778T263 819Q259 821 247 826T229 833T215 842T202 854T195 869T191 891Z" />
<glyph unicode="&#xd3;" glyph-name="Oacute" horiz-adv-x="668" d="M48 348Q48 501 133 603T337 705T536 601T618 351Q618 191 539 94T337 -5Q219 -5 134 94T48 348ZM122 347Q122 233 185 151T337 69Q424 69 484 151T544 349Q544 459 484 545T337 631Q249 631
186 544T122 347ZM305 774Q305 820 340 885T418 950Q440 950 458 931T476 891Q476 879 473 870T465 855T452 843T438 834T421 826T404 819Q384 810 359 779T322 747Q305 747 305 774Z" />
<glyph unicode="&#xd4;" glyph-name="Ocircumflex" horiz-adv-x="668" d="M48 348Q48 501 133 603T337 705T536 601T618 351Q618 191 539 94T337 -5Q219 -5 134 94T48 348ZM122 347Q122 233 185 151T337 69Q424 69 484 151T544 349Q544 459 484 545T337 631Q249
631 186 544T122 347ZM166 786Q166 792 170 797L285 915Q288 918 293 924T302 932T309 939T317 945T324 948T332 950T340 948T350 942T359 935T368 924L378 915L495 797Q499 793 499 786Q499 773 485 762T457 751Q442 751 428 765L332 850L237 765Q224 752 209
752T180 762T166 786Z" />
<glyph unicode="&#xd5;" glyph-name="Otilde" horiz-adv-x="668" d="M48 348Q48 501 133 603T337 705T536 601T618 351Q618 191 539 94T337 -5Q219 -5 134 94T48 348ZM122 347Q122 233 185 151T337 69Q424 69 484 151T544 349Q544 459 484 545T337 631Q249 631
186 544T122 347ZM129 798Q129 840 164 869T247 898Q270 898 290 891T321 876T350 853Q387 825 415 825Q444 825 464 840T484 876Q484 886 492 892T512 898Q537 898 537 855Q536 813 501 784T419 755Q382 755 352 771Q339 778 320 794T285 819T251 828Q222 828
202 813T182 777Q182 767 174 761T154 755Q129 755 129 798Z" />
<glyph unicode="&#xd6;" glyph-name="Odieresis" horiz-adv-x="668" d="M48 348Q48 501 133 603T337 705T536 601T618 351Q618 191 539 94T337 -5Q219 -5 134 94T48 348ZM122 347Q122 233 185 151T337 69Q424 69 484 151T544 349Q544 459 484 545T337 631Q249
631 186 544T122 347ZM142 820V848Q142 870 160 883T210 896Q237 896 256 884T275 848V820Q275 797 255 784T209 770Q178 770 160 783T142 820ZM392 820V848Q392 870 410 883T460 896Q487 896 506 884T525 848V820Q525 797 505 784T459 770Q428 770 410 783T392
820Z" />
<glyph unicode="&#xd7;" glyph-name="multiply" horiz-adv-x="412" d="M68 170Q68 180 75 187L153 265L76 343Q69 350 69 360Q69 377 83 390T110 403Q120 403 128 395L206 317L284 395Q291 402 301 402Q318 402 331 388T344 361Q344 351 336 343L258 265L337 187Q344
180 344 170Q344 157 330 142T300 127Q291 127 284 134L206 212L128 134Q121 127 111 127Q98 127 83 141T68 170Z" />
<glyph unicode="&#xd8;" glyph-name="Oslash" horiz-adv-x="683" d="M15 35Q15 52 31 72L103 150Q56 236 56 348Q56 501 141 603T345 705Q450 705 530 617L602 695Q610 704 622 704Q638 704 652 692T666 668Q666 657 655 643L574 555Q626 462 626 351Q626 191
547 94T345 -5Q230 -5 147 87L77 10Q68 0 54 0Q39 0 27 10T15 35ZM130 347Q130 274 158 210L479 561Q419 631 345 631Q257 631 194 544T130 347ZM199 143Q260 69 345 69Q432 69 492 151T552 349Q552 425 520 495L199 143Z" />
<glyph unicode="&#xd9;" glyph-name="Ugrave" horiz-adv-x="700" d="M68 214V672Q69 685 79 692T104 700Q141 700 141 672V223Q141 176 180 140T265 89T346 74Q388 74 435 89T520 139T559 223V672Q559 700 596 700Q610 700 620 693T632 672V214Q632 154 588 104T481
27T354 0Q251 0 160 62T68 214ZM216 891Q216 911 234 930T274 950Q317 950 352 885T387 774Q387 747 370 747Q359 747 334 778T288 819Q284 821 272 826T254 833T240 842T227 854T220 869T216 891Z" />
<glyph unicode="&#xda;" glyph-name="Uacute" horiz-adv-x="700" d="M68 214V672Q69 685 79 692T104 700Q141 700 141 672V223Q141 176 180 140T265 89T346 74Q388 74 435 89T520 139T559 223V672Q559 700 596 700Q610 700 620 693T632 672V214Q632 154 588 104T481
27T354 0Q251 0 160 62T68 214ZM312 774Q312 820 347 885T425 950Q447 950 465 931T483 891Q483 879 480 870T472 855T459 843T445 834T428 826T411 819Q391 810 366 779T329 747Q312 747 312 774Z" />
<glyph unicode="&#xdb;" glyph-name="Ucircumflex" horiz-adv-x="700" d="M68 214V672Q69 685 79 692T104 700Q141 700 141 672V223Q141 176 180 140T265 89T346 74Q388 74 435 89T520 139T559 223V672Q559 700 596 700Q610 700 620 693T632 672V214Q632 154 588
104T481 27T354 0Q251 0 160 62T68 214ZM183 786Q183 792 187 797L302 915Q305 918 310 924T319 932T326 939T334 945T341 948T349 950T357 948T367 942T376 935T386 924L395 915L512 797Q516 793 516 786Q516 773 502 762T474 751Q459 751 445 765L349 850L254
765Q241 752 226 752T197 762T183 786Z" />
<glyph unicode="&#xdc;" glyph-name="Udieresis" horiz-adv-x="700" d="M68 214V672Q69 685 79 692T104 700Q141 700 141 672V223Q141 176 180 140T265 89T346 74Q388 74 435 89T520 139T559 223V672Q559 700 596 700Q610 700 620 693T632 672V214Q632 154 588
104T481 27T354 0Q251 0 160 62T68 214ZM159 820V848Q159 870 177 883T227 896Q254 896 273 884T292 848V820Q292 797 272 784T226 770Q195 770 177 783T159 820ZM409 820V848Q409 870 427 883T477 896Q504 896 523 884T542 848V820Q542 797 522 784T476 770Q445
770 427 783T409 820Z" />
<glyph unicode="&#xdd;" glyph-name="Yacute" horiz-adv-x="658" d="M47 444V672Q48 685 58 692T83 700Q120 700 120 672V453Q120 406 159 370T244 319T325 304Q367 304 414 319T499 369T538 453V672Q538 700 575 700Q589 700 599 693T611 672V444Q611 362 535
303T365 232V28Q365 15 354 8T328 0Q291 0 291 28V233Q195 246 121 304T47 444ZM287 774Q287 820 322 885T400 950Q422 950 440 931T458 891Q458 879 455 870T447 855T434 843T420 834T403 826T386 819Q366 810 341 779T304 747Q287 747 287 774Z" />
<glyph unicode="&#xde;" glyph-name="Thorn" horiz-adv-x="632" d="M73 27V672Q73 700 110 700Q145 700 145 669V547Q248 591 344 591Q480 591 544 526T608 362Q608 250 521 201T268 152Q248 152 208 155T147 158V27Q147 14 137 7T111 0Q73 0 73 27ZM147 244Q188
231 312 231Q412 231 473 266T534 373Q534 434 485 475T334 517Q246 517 147 464V244Z" />
<glyph unicode="&#xdf;" glyph-name="germandbls" horiz-adv-x="490" d="M60 -122V665Q60 690 77 708T122 735T175 747T224 751Q299 751 345 721T391 623Q391 573 373 535T336 475T318 440Q318 426 332 409T366 372T405 327T439 263T453 179Q453 108 399 54T269
0Q240 0 209 14T178 53Q178 69 192 81T221 93Q229 93 245 83T274 72Q319 72 349 105T380 189Q380 227 363 258T322 309T274 346T233 383T216 424Q216 442 231 465T265 508T299 557T315 615Q315 679 233 679Q182 679 134 663V-122Q134 -135 123 -142T97 -150Q60
-150 60 -122Z" />
<glyph unicode="&#xe0;" glyph-name="agrave" horiz-adv-x="652" d="M38 182Q38 316 143 413T381 510Q472 510 536 441T600 284L599 22Q599 9 587 2T559 -6Q526 -6 526 22V191Q445 86 372 39T220 -8Q148 -8 93 50T38 182ZM110 180Q110 123 150 94T235 64Q287 64
354 115T465 230T510 330Q510 360 493 383T450 418T403 434T368 440Q270 440 190 362T110 180ZM189 691Q189 711 207 730T247 750Q290 750 325 685T360 574Q360 547 343 547Q332 547 307 578T261 619Q257 621 245 626T227 633T213 642T200 654T193 669T189 691Z"
/>
<glyph unicode="&#xe1;" glyph-name="aacute" horiz-adv-x="652" d="M38 182Q38 316 143 413T381 510Q472 510 536 441T600 284L599 22Q599 9 587 2T559 -6Q526 -6 526 22V191Q445 86 372 39T220 -8Q148 -8 93 50T38 182ZM110 180Q110 123 150 94T235 64Q287 64
354 115T465 230T510 330Q510 360 493 383T450 418T403 434T368 440Q270 440 190 362T110 180ZM264 574Q264 620 299 685T377 750Q399 750 417 731T435 691Q435 679 432 670T424 655T411 643T397 634T380 626T363 619Q343 610 318 579T281 547Q264 547 264 574Z"
/>
<glyph unicode="&#xe2;" glyph-name="acircumflex" horiz-adv-x="652" d="M38 182Q38 316 143 413T381 510Q472 510 536 441T600 284L599 22Q599 9 587 2T559 -6Q526 -6 526 22V191Q445 86 372 39T220 -8Q148 -8 93 50T38 182ZM110 180Q110 123 150 94T235 64Q287
64 354 115T465 230T510 330Q510 360 493 383T450 418T403 434T368 440Q270 440 190 362T110 180ZM152 586Q152 592 156 597L271 715Q274 718 279 724T288 732T295 739T303 745T310 748T318 750T326 748T336 742T345 735T354 724L364 715L481 597Q485 593 485 586Q485
573 471 562T443 551Q428 551 414 565L318 650L223 565Q210 552 195 552T166 562T152 586Z" />
<glyph unicode="&#xe3;" glyph-name="atilde" horiz-adv-x="652" d="M38 182Q38 316 143 413T381 510Q472 510 536 441T600 284L599 22Q599 9 587 2T559 -6Q526 -6 526 22V191Q445 86 372 39T220 -8Q148 -8 93 50T38 182ZM110 180Q110 123 150 94T235 64Q287 64
354 115T465 230T510 330Q510 360 493 383T450 418T403 434T368 440Q270 440 190 362T110 180ZM115 598Q115 640 150 669T233 698Q256 698 276 691T307 676T336 653Q373 625 401 625Q430 625 450 640T470 676Q470 686 478 692T498 698Q523 698 523 655Q522 613
487 584T405 555Q368 555 338 571Q325 578 306 594T271 619T237 628Q208 628 188 613T168 577Q168 567 160 561T140 555Q115 555 115 598Z" />
<glyph unicode="&#xe4;" glyph-name="adieresis" horiz-adv-x="652" d="M38 182Q38 316 143 413T381 510Q472 510 536 441T600 284L599 22Q599 9 587 2T559 -6Q526 -6 526 22V191Q445 86 372 39T220 -8Q148 -8 93 50T38 182ZM110 180Q110 123 150 94T235 64Q287
64 354 115T465 230T510 330Q510 360 493 383T450 418T403 434T368 440Q270 440 190 362T110 180ZM128 620V648Q128 670 146 683T196 696Q223 696 242 684T261 648V620Q261 597 241 584T195 570Q164 570 146 583T128 620ZM378 620V648Q378 670 396 683T446 696Q473
696 492 684T511 648V620Q511 597 491 584T445 570Q414 570 396 583T378 620Z" />
<glyph unicode="&#xe5;" glyph-name="aring" horiz-adv-x="652" d="M38 182Q38 316 143 413T381 510Q472 510 536 441T600 284L599 22Q599 9 587 2T559 -6Q526 -6 526 22V191Q445 86 372 39T220 -8Q148 -8 93 50T38 182ZM110 180Q110 123 150 94T235 64Q287 64
354 115T465 230T510 330Q510 360 493 383T450 418T403 434T368 440Q270 440 190 362T110 180ZM199 652Q199 700 234 728T312 756Q352 756 384 727T417 652Q417 610 388 580T312 550T233 580T199 652ZM263 651Q263 637 278 625T312 612Q327 612 339 625T352 652T340
679T312 693Q289 693 276 680T263 651Z" />
<glyph unicode="&#xe6;" glyph-name="ae" horiz-adv-x="1078" d="M38 182Q38 316 143 413T381 510Q438 510 486 481T565 403Q607 458 679 486T829 515Q927 515 981 473T1035 368Q1035 301 972 254T793 207Q690 207 595 235Q598 156 660 110T807 63Q852 63 900
77T977 117Q981 125 993 125Q1007 125 1023 113T1039 87Q1014 36 942 13T801 -11Q678 -11 599 70V22Q599 9 587 2T559 -6Q526 -6 526 22V191Q445 86 372 39T220 -8Q148 -8 93 50T38 182ZM110 180Q110 123 150 94T235 64Q287 64 354 115T465 230T510 330Q510 360
493 383T450 418T403 434T368 440Q270 440 190 362T110 180ZM599 314Q674 281 785 281Q872 281 917 308T962 370Q962 400 925 420T813 441Q717 441 665 405T599 314Z" />
<glyph unicode="&#xe7;" glyph-name="ccedilla" horiz-adv-x="555" d="M38 248Q38 334 84 396T195 487T331 515Q421 515 498 453Q506 446 506 435Q506 419 493 406T466 392Q456 392 449 399Q401 441 329 441Q227 441 170 379T112 247Q112 176 178 118T330 59Q418
59 473 122Q484 133 492 133Q507 133 521 118T535 89Q535 80 528 73Q451 -15 335 -15Q325 -15 307 -13V-36Q335 -36 366 -60T397 -133Q397 -177 364 -201T291 -225Q232 -225 204 -202T176 -149Q176 -135 186 -127T210 -119Q230 -119 232 -134Q235 -171 277 -171Q296
-171 310 -162T325 -137Q325 -118 317 -106T291 -88T263 -81T233 -78V1Q147 29 93 97T38 248Z" />
<glyph unicode="&#xe8;" glyph-name="egrave" horiz-adv-x="596" d="M38 264Q38 328 66 378T140 457T239 500T347 515Q445 515 499 473T553 368Q553 301 490 254T311 207Q207 207 113 237Q124 163 182 113T325 63Q370 63 418 77T495 117Q499 125 511 125Q525 125
541 113T557 87Q532 36 460 13T319 -11Q196 -11 117 70T38 264ZM117 314Q192 281 303 281Q390 281 435 308T480 370Q480 400 443 420T331 441Q251 441 198 406T117 314ZM203 691Q203 711 221 730T261 750Q304 750 339 685T374 574Q374 547 357 547Q346 547 321
578T275 619Q271 621 259 626T241 633T227 642T214 654T207 669T203 691Z" />
<glyph unicode="&#xe9;" glyph-name="eacute" horiz-adv-x="596" d="M38 264Q38 328 66 378T140 457T239 500T347 515Q445 515 499 473T553 368Q553 301 490 254T311 207Q207 207 113 237Q124 163 182 113T325 63Q370 63 418 77T495 117Q499 125 511 125Q525 125
541 113T557 87Q532 36 460 13T319 -11Q196 -11 117 70T38 264ZM117 314Q192 281 303 281Q390 281 435 308T480 370Q480 400 443 420T331 441Q251 441 198 406T117 314ZM251 574Q251 620 286 685T364 750Q386 750 404 731T422 691Q422 679 419 670T411 655T398
643T384 634T367 626T350 619Q330 610 305 579T268 547Q251 547 251 574Z" />
<glyph unicode="&#xea;" glyph-name="ecircumflex" horiz-adv-x="596" d="M38 264Q38 328 66 378T140 457T239 500T347 515Q445 515 499 473T553 368Q553 301 490 254T311 207Q207 207 113 237Q124 163 182 113T325 63Q370 63 418 77T495 117Q499 125 511 125Q525
125 541 113T557 87Q532 36 460 13T319 -11Q196 -11 117 70T38 264ZM117 314Q192 281 303 281Q390 281 435 308T480 370Q480 400 443 420T331 441Q251 441 198 406T117 314ZM131 586Q131 592 135 597L250 715Q253 718 258 724T267 732T274 739T282 745T289 748T297
750T305 748T315 742T324 735T334 724L343 715L460 597Q464 593 464 586Q464 573 450 562T422 551Q407 551 393 565L297 650L202 565Q189 552 174 552T145 562T131 586Z" />
<glyph unicode="&#xeb;" glyph-name="edieresis" horiz-adv-x="596" d="M38 264Q38 328 66 378T140 457T239 500T347 515Q445 515 499 473T553 368Q553 301 490 254T311 207Q207 207 113 237Q124 163 182 113T325 63Q370 63 418 77T495 117Q499 125 511 125Q525
125 541 113T557 87Q532 36 460 13T319 -11Q196 -11 117 70T38 264ZM110 620V648Q110 670 128 683T178 696Q205 696 224 684T243 648V620Q243 597 223 584T177 570Q146 570 128 583T110 620ZM117 314Q192 281 303 281Q390 281 435 308T480 370Q480 400 443 420T331
441Q251 441 198 406T117 314ZM360 620V648Q360 670 378 683T428 696Q455 696 474 684T493 648V620Q493 597 473 584T427 570Q396 570 378 583T360 620Z" />
<glyph unicode="&#xec;" glyph-name="igrave" horiz-adv-x="194" d="M-38 691Q-38 711 -20 730T20 750Q63 750 98 685T133 574Q133 547 116 547Q105 547 80 578T34 619Q30 621 18 626T0 633T-14 642T-27 654T-34 669T-38 691ZM60 28V473Q60 500 98 500Q113 500
123 493T134 473V28Q134 15 123 8T97 0Q60 0 60 28Z" />
<glyph unicode="&#xed;" glyph-name="iacute" horiz-adv-x="194" d="M60 28V473Q60 500 98 500Q113 500 123 493T134 473V28Q134 15 123 8T97 0Q60 0 60 28ZM64 574Q64 620 99 685T177 750Q199 750 217 731T235 691Q235 679 232 670T224 655T211 643T197 634T180
626T163 619Q143 610 118 579T81 547Q64 547 64 574Z" />
<glyph unicode="&#xee;" glyph-name="icircumflex" horiz-adv-x="194" d="M-69 586Q-69 592 -65 597L50 715Q53 718 58 724T67 732T74 739T82 745T89 748T97 750T105 748T115 742T124 735T134 724L143 715L260 597Q264 593 264 586Q264 573 250 562T222 551Q207
551 193 565L97 650L2 565Q-11 552 -26 552T-55 562T-69 586ZM60 28V473Q60 500 98 500Q113 500 123 493T134 473V28Q134 15 123 8T97 0Q60 0 60 28Z" />
<glyph unicode="&#xef;" glyph-name="idieresis" horiz-adv-x="194" d="M-94 620V648Q-94 670 -76 683T-26 696Q1 696 20 684T39 648V620Q39 597 19 584T-27 570Q-58 570 -76 583T-94 620ZM60 28V473Q60 500 98 500Q113 500 123 493T134 473V28Q134 15 123 8T97
0Q60 0 60 28ZM156 620V648Q156 670 174 683T224 696Q251 696 270 684T289 648V620Q289 597 269 584T223 570Q192 570 174 583T156 620Z" />
<glyph unicode="&#xf0;" glyph-name="eth" horiz-adv-x="501" d="M37 201Q37 286 97 343T238 401Q302 401 357 355Q337 424 257 507L183 447Q176 440 166 440Q153 440 138 454T123 483Q123 493 130 500L204 560L165 593Q153 603 143 617T133 642Q133 656 144 668T177
681Q197 681 241 643L273 615L346 674Q353 681 363 681Q380 681 393 667T406 640Q406 630 398 622L327 564Q458 423 458 246Q458 132 404 64T246 -5Q149 -5 93 56T37 201ZM111 200Q111 140 154 106T249 71Q292 71 328 103T364 184Q364 241 328 279T244 318Q188
318 150 284T111 200Z" />
<glyph unicode="&#xf1;" glyph-name="ntilde" horiz-adv-x="673" d="M60 26V473Q60 486 70 493T96 500Q134 500 134 473V394Q184 448 255 479T399 511Q493 511 556 453T620 300Q620 291 620 209T619 28Q619 15 608 8T582 0Q545 0 545 28V291Q545 362 495 400T390
438Q317 438 241 390T134 267V26Q134 -1 96 -1Q81 -1 71 6T60 26ZM136 598Q136 640 171 669T254 698Q277 698 297 691T328 676T357 653Q394 625 422 625Q451 625 471 640T491 676Q491 686 499 692T519 698Q544 698 544 655Q543 613 508 584T426 555Q389 555 359
571Q346 578 327 594T292 619T258 628Q229 628 209 613T189 577Q189 567 181 561T161 555Q136 555 136 598Z" />
<glyph unicode="&#xf2;" glyph-name="ograve" horiz-adv-x="636" d="M38 248Q38 334 83 396T193 487T329 515Q429 515 513 440T598 249Q598 140 523 63T327 -15Q208 -15 123 62T38 248ZM112 247Q112 176 177 118T328 59Q409 59 466 118T524 249Q524 319 469 380T327
441Q225 441 169 379T112 247ZM203 691Q203 711 221 730T261 750Q304 750 339 685T374 574Q374 547 357 547Q346 547 321 578T275 619Q271 621 259 626T241 633T227 642T214 654T207 669T203 691Z" />
<glyph unicode="&#xf3;" glyph-name="oacute" horiz-adv-x="636" d="M38 248Q38 334 83 396T193 487T329 515Q429 515 513 440T598 249Q598 140 523 63T327 -15Q208 -15 123 62T38 248ZM112 247Q112 176 177 118T328 59Q409 59 466 118T524 249Q524 319 469 380T327
441Q225 441 169 379T112 247ZM265 574Q265 620 300 685T378 750Q400 750 418 731T436 691Q436 679 433 670T425 655T412 643T398 634T381 626T364 619Q344 610 319 579T282 547Q265 547 265 574Z" />
<glyph unicode="&#xf4;" glyph-name="ocircumflex" horiz-adv-x="636" d="M38 248Q38 334 83 396T193 487T329 515Q429 515 513 440T598 249Q598 140 523 63T327 -15Q208 -15 123 62T38 248ZM112 247Q112 176 177 118T328 59Q409 59 466 118T524 249Q524 319 469
380T327 441Q225 441 169 379T112 247ZM151 586Q151 592 155 597L270 715Q273 718 278 724T287 732T294 739T302 745T309 748T317 750T325 748T335 742T344 735T354 724L363 715L480 597Q484 593 484 586Q484 573 470 562T442 551Q427 551 413 565L317 650L222
565Q209 552 194 552T165 562T151 586Z" />
<glyph unicode="&#xf5;" glyph-name="otilde" horiz-adv-x="636" d="M38 248Q38 334 83 396T193 487T329 515Q429 515 513 440T598 249Q598 140 523 63T327 -15Q208 -15 123 62T38 248ZM112 247Q112 176 177 118T328 59Q409 59 466 118T524 249Q524 319 469 380T327
441Q225 441 169 379T112 247ZM114 598Q114 640 149 669T232 698Q255 698 275 691T306 676T335 653Q372 625 400 625Q429 625 449 640T469 676Q469 686 477 692T497 698Q522 698 522 655Q521 613 486 584T404 555Q367 555 337 571Q324 578 305 594T270 619T236
628Q207 628 187 613T167 577Q167 567 159 561T139 555Q114 555 114 598Z" />
<glyph unicode="&#xf6;" glyph-name="odieresis" horiz-adv-x="636" d="M38 248Q38 334 83 396T193 487T329 515Q429 515 513 440T598 249Q598 140 523 63T327 -15Q208 -15 123 62T38 248ZM112 247Q112 176 177 118T328 59Q409 59 466 118T524 249Q524 319 469
380T327 441Q225 441 169 379T112 247ZM127 620V648Q127 670 145 683T195 696Q222 696 241 684T260 648V620Q260 597 240 584T194 570Q163 570 145 583T127 620ZM377 620V648Q377 670 395 683T445 696Q472 696 491 684T510 648V620Q510 597 490 584T444 570Q413
570 395 583T377 620Z" />
<glyph unicode="&#xf7;" glyph-name="divide" horiz-adv-x="446" d="M48 214Q48 229 55 239T75 250H370Q383 250 390 239T398 213Q398 176 370 176H75Q48 176 48 214ZM154 50V78Q154 100 172 113T222 126Q249 126 268 114T287 78V50Q287 27 267 14T221 0Q190 0
172 13T154 50ZM154 350V378Q154 400 172 413T222 426Q249 426 268 414T287 378V350Q287 327 267 314T221 300Q190 300 172 313T154 350Z" />
<glyph unicode="&#xf8;" glyph-name="oslash" horiz-adv-x="636" d="M36 -49Q36 -32 52 -12L117 67Q38 144 38 248Q38 334 83 396T193 487T329 515Q392 515 457 480L548 590Q556 599 568 599Q584 599 598 587T612 563Q612 552 601 538L517 436Q598 358 598 249T523
63T327 -15Q249 -15 178 23L98 -74Q89 -84 75 -84Q60 -84 48 -74T36 -49ZM112 247Q112 182 167 127L410 423Q371 441 327 441Q225 441 169 379T112 247ZM227 83Q275 59 328 59Q409 59 466 118T524 249Q524 319 470 378L227 83Z" />
<glyph unicode="&#xf9;" glyph-name="ugrave" horiz-adv-x="670" d="M53 204Q53 213 53 293T54 472Q54 485 65 492T91 500Q128 500 128 472V213Q128 142 178 103T283 63Q351 63 428 112T536 236V473Q536 500 574 500Q589 500 599 493T610 473V27Q610 14 600 7T574
0Q536 0 536 27V109Q486 54 417 22T274 -10Q180 -10 117 50T53 204ZM202 691Q202 711 220 730T260 750Q303 750 338 685T373 574Q373 547 356 547Q345 547 320 578T274 619Q270 621 258 626T240 633T226 642T213 654T206 669T202 691Z" />
<glyph unicode="&#xfa;" glyph-name="uacute" horiz-adv-x="670" d="M53 204Q53 213 53 293T54 472Q54 485 65 492T91 500Q128 500 128 472V213Q128 142 178 103T283 63Q351 63 428 112T536 236V473Q536 500 574 500Q589 500 599 493T610 473V27Q610 14 600 7T574
0Q536 0 536 27V109Q486 54 417 22T274 -10Q180 -10 117 50T53 204ZM275 574Q275 620 310 685T388 750Q410 750 428 731T446 691Q446 679 443 670T435 655T422 643T408 634T391 626T374 619Q354 610 329 579T292 547Q275 547 275 574Z" />
<glyph unicode="&#xfb;" glyph-name="ucircumflex" horiz-adv-x="670" d="M53 204Q53 213 53 293T54 472Q54 485 65 492T91 500Q128 500 128 472V213Q128 142 178 103T283 63Q351 63 428 112T536 236V473Q536 500 574 500Q589 500 599 493T610 473V27Q610 14 600
7T574 0Q536 0 536 27V109Q486 54 417 22T274 -10Q180 -10 117 50T53 204ZM165 586Q165 592 169 597L284 715Q287 718 292 724T301 732T308 739T316 745T323 748T331 750T339 748T349 742T358 735T368 724L377 715L494 597Q498 593 498 586Q498 573 484 562T456
551Q441 551 427 565L331 650L236 565Q223 552 208 552T179 562T165 586Z" />
<glyph unicode="&#xfc;" glyph-name="udieresis" horiz-adv-x="670" d="M53 204Q53 213 53 293T54 472Q54 485 65 492T91 500Q128 500 128 472V213Q128 142 178 103T283 63Q351 63 428 112T536 236V473Q536 500 574 500Q589 500 599 493T610 473V27Q610 14 600
7T574 0Q536 0 536 27V109Q486 54 417 22T274 -10Q180 -10 117 50T53 204ZM141 620V648Q141 670 159 683T209 696Q236 696 255 684T274 648V620Q274 597 254 584T208 570Q177 570 159 583T141 620ZM391 620V648Q391 670 409 683T459 696Q486 696 505 684T524 648V620Q524
597 504 584T458 570Q427 570 409 583T391 620Z" />
<glyph unicode="&#xfd;" glyph-name="yacute" horiz-adv-x="668" d="M54 204V474Q54 487 64 494T89 502Q126 502 126 474V213Q126 176 146 147T196 103T256 81T311 73Q382 73 445 117T534 234V474Q534 501 572 501Q587 501 597 494T608 474V-5Q608 -64 582 -113T513
-193T422 -239T325 -255Q243 -255 165 -217T85 -115Q85 -99 95 -91T121 -82Q137 -82 149 -91T161 -114Q161 -146 218 -163T330 -181Q375 -181 419 -165T499 -108T534 -12V104Q443 0 302 0Q204 0 129 56T54 204ZM281 574Q281 620 316 685T394 750Q416 750 434 731T452
691Q452 679 449 670T441 655T428 643T414 634T397 626T380 619Q360 610 335 579T298 547Q281 547 281 574Z" />
<glyph unicode="&#xfe;" glyph-name="thorn" horiz-adv-x="658" d="M60 -224V721Q60 734 70 741T96 748Q134 748 134 721V454Q195 509 278 509Q364 509 442 468T570 353T619 189Q619 113 560 57T415 0Q229 0 134 145V-224Q134 -252 97 -252Q82 -252 71 -245T60
-224ZM133 311Q133 261 174 205T277 111T396 73Q456 73 498 103T541 201Q541 267 499 322T396 406T278 434Q230 434 182 403T133 311Z" />
<glyph unicode="&#xff;" glyph-name="ydieresis" horiz-adv-x="668" d="M54 204V474Q54 487 64 494T89 502Q126 502 126 474V213Q126 176 146 147T196 103T256 81T311 73Q382 73 445 117T534 234V474Q534 501 572 501Q587 501 597 494T608 474V-5Q608 -64 582
-113T513 -193T422 -239T325 -255Q243 -255 165 -217T85 -115Q85 -99 95 -91T121 -82Q137 -82 149 -91T161 -114Q161 -146 218 -163T330 -181Q375 -181 419 -165T499 -108T534 -12V104Q443 0 302 0Q204 0 129 56T54 204ZM139 620V648Q139 670 157 683T207 696Q234
696 253 684T272 648V620Q272 597 252 584T206 570Q175 570 157 583T139 620ZM389 620V648Q389 670 407 683T457 696Q484 696 503 684T522 648V620Q522 597 502 584T456 570Q425 570 407 583T389 620Z" />
<glyph unicode="&#x2013;" glyph-name="endash" horiz-adv-x="470" d="M60 266Q60 281 67 291T87 302H382Q395 302 402 291T410 265Q410 228 382 228H87Q60 228 60 266Z" />
<glyph unicode="&#x2014;" glyph-name="emdash" horiz-adv-x="680" d="M60 266Q60 281 67 291T87 302H592Q605 302 612 291T620 265Q620 228 592 228H87Q60 228 60 266Z" />
<glyph unicode="&#x2018;" glyph-name="quoteleft" horiz-adv-x="242" d="M55 599Q55 642 93 696T150 750Q168 750 168 738Q168 733 160 705T151 663T158 646Q190 624 190 581Q190 555 171 539T120 523Q55 523 55 599Z" />
<glyph unicode="&#x2019;" glyph-name="quoteright" horiz-adv-x="235" d="M53 692Q53 718 72 734T123 750Q188 750 188 674Q188 631 150 577T93 523Q75 523 75 535Q75 540 83 568T92 610T85 627Q53 649 53 692Z" />
<glyph unicode="&#x201a;" glyph-name="quotesinglbase" horiz-adv-x="253" d="M58 68Q58 94 77 110T128 126Q193 126 193 50Q193 7 155 -47T98 -101Q80 -101 80 -89Q80 -84 88 -56T97 -14T90 3Q58 25 58 68Z" />
<glyph unicode="&#x201c;" glyph-name="quotedblleft" horiz-adv-x="442" d="M55 599Q55 642 93 696T150 750Q168 750 168 738Q168 733 160 705T151 663T158 646Q190 624 190 581Q190 555 171 539T120 523Q55 523 55 599ZM255 599Q255 642 293 696T350 750Q368
750 368 738Q368 733 360 705T351 663T358 646Q390 624 390 581Q390 555 371 539T320 523Q255 523 255 599Z" />
<glyph unicode="&#x201d;" glyph-name="quotedblright" horiz-adv-x="435" d="M53 692Q53 718 72 734T123 750Q188 750 188 674Q188 631 150 577T93 523Q75 523 75 535Q75 540 83 568T92 610T85 627Q53 649 53 692ZM253 692Q253 718 272 734T323 750Q388 750 388
674Q388 631 350 577T293 523Q275 523 275 535Q275 540 283 568T292 610T285 627Q253 649 253 692Z" />
<glyph unicode="&#x201e;" glyph-name="quotedblbase" horiz-adv-x="443" d="M58 68Q58 94 77 110T128 126Q193 126 193 50Q193 7 155 -47T98 -101Q80 -101 80 -89Q80 -84 88 -56T97 -14T90 3Q58 25 58 68ZM248 68Q248 94 267 110T318 126Q383 126 383 50Q383
7 345 -47T288 -101Q270 -101 270 -89Q270 -84 278 -56T287 -14T280 3Q248 25 248 68Z" />
<glyph unicode="&#x2022;" glyph-name="bullet" horiz-adv-x="409" d="M53 321Q53 389 101 427T210 465Q264 465 309 425T355 321Q355 262 315 221T208 179Q144 179 99 221T53 321Z" />
<glyph unicode="&#x2039;" glyph-name="guilsinglleft" horiz-adv-x="479" d="M29 311Q29 333 62 358L380 605Q386 607 390 607Q405 607 416 592T427 562Q427 546 412 538L127 312L412 77Q427 69 427 53Q427 38 416 23T390 8Q386 8 380 10L62 265Q29 287 29 311Z" />
<glyph unicode="&#x203a;" glyph-name="guilsinglright" horiz-adv-x="479" d="M52 53Q52 69 67 77L352 312L67 538Q52 546 52 562Q52 577 63 592T89 607Q93 607 99 605L417 358Q450 336 450 311Q450 287 417 265L99 10Q93 8 89 8Q74 8 63 23T52 53Z" />
</font>
</defs>
</svg>
